Завантажити та скачати торренти українською


Гарлі (Харлі, Харлей) Девідсон та ковбой Мальборо / Harley Davidson and the Marlboro Man (1991) Remux 1080p 2xUkr/Eng | Sub Eng

Нові коментарі

Нова тема   Відповісти
Останній раз роздавалося sgt74 (2016-08-02)
Автор Повідомлення
Alex60 
Забанено
Забанено


З нами з: 06.12.14
Востаннє: 24.07.16
Повідомлень: 40

2015-08-28 17:26  
Гарлі Девідсон та Ковбой Мальборо / Harley Davidson and the Marlboro Man (1991) Remux 2xUkr/Eng | Sub Eng

Гарлі (Харлі, Харлей) Девідсон та ковбой Мальборо / Harley Davidson and the Marlboro Man (1991) Remux 1080p 2xUkr/Eng | Sub Eng


Жанр: кримінальний, екшн, бойовик
Країна: США



Кінокомпанія: Metro-Goldwyn-Mayer
Режисер: Саймон Уінцер
Актори: Міккі Рурк, Дон Джонсон, Челсі Філд, Даніел Болдуін, Тіа Каррере та інші.

Сюжет:
Молодий хлопець на ім'я Харлей Девідсон повертається у своє рідне місто, Лос-Анджелес. Тут він зустрічає свого найкращого друга - ковбоя Мальборо. Випадково друзі дізнаються, що у хазяїна бару, у якому вони буквально виросли, проблеми з оплатою оренди банку. Харлей, Мальборо та ще кілька їхніх друзів вирішують пограбувати саме цей банк. Але у броньовику замість грошей вони знаходять наркотики...


Тривалість: 01:38:27
Якість: Remux
Відео:
кодек:
розмір кадру: 1920 х 1080
бітрейт: 21990 кб/с

Аудіо # 1:
мова: українська
переклад: двоголосий закадровий [1+1]
кодек: 2.0
бітрейт: 192 кб/с

Аудіо # 2:
мова: українська
переклад: багатоголосий закадровий [Так Треба Продакшн]
кодек: 2.0
бітрейт: 192 кб/с

Аудіо # 3:
мова: англійська
переклад: оригінал
кодек: -HD 5.1
бітрейт: 1509 кб/с

Субтитри:
мова: англійська
тип: програмні (м'які)
формат: *.srt
MediaInfo
General
Unique ID : 217763805938953291345177746488634293522 (0xA3D3C8913CEE0789A2714845A9C2BD12)
Complete name : S:\Harley Davidson And The Marlboro Man [1991] Remux 1080p UkrEng.mkv
Format : Matroska
Format version : Version 4 / Version 2
File size : 16.8 GiB
Duration : 1h 38mn
Overall bit rate mode : Variable
Overall bit rate : 24.4 Mbps
Encoded date : UTC 2015-08-28 14:39:40
Writing application : mkvmerge v6.8.0 ('Theme for Great Cities') 64bit built on Mar 2 2014 21:34:26
Writing library : libebml v1.3.0 + libmatroska v1.4.1
Attachements : cover.jpg

Video
ID : 1
Format : AVC
Format/Info : Advanced Video Codec
Format profile : [email protected]
Format settings, CABAC : Yes
Format settings, ReFrames : 4 frames
Codec ID : V_MPEG4/ISO/AVC
Duration : 1h 38mn
Bit rate mode : Variable
Maximum bit rate : 25.0 Mbps
Width : 1 920 pixels
Height : 1 080 pixels
Display aspect ratio : 16:9
Frame rate mode : Constant
Frame rate : 23.976 fps
Color space : YUV
Chroma subsampling : 4:2:0
Bit depth : 8 bits
Scan type : Progressive
Language : English
Default : Yes
Forced : No

Audio #1
ID : 2
Format : AC-3
Format/Info : Audio Coding 3
Format profile : Dolby Digital
Mode extension : CM (complete main)
Format settings, Endianness : Big
Codec ID : A_AC3
Duration : 1h 38mn
Bit rate mode : Constant
Bit rate : 192 Kbps
Channel(s) : 2 channels
Channel positions : Front: L R
Sampling rate : 48.0 KHz
Compression mode : Lossy
Stream size : 135 MiB (1%)
Title : Dolby Digital | 2.0 | 48 kHz | 16 bit | 192 kbps | Двуголосий [1+1]
Language : Ukrainian
Default : Yes
Forced : No

Audio #2
ID : 3
Format : AC-3
Format/Info : Audio Coding 3
Format profile : Dolby Digital
Mode extension : CM (complete main)
Format settings, Endianness : Big
Codec ID : A_AC3
Duration : 1h 38mn
Bit rate mode : Constant
Bit rate : 192 Kbps
Channel(s) : 2 channels
Channel positions : Front: L R
Sampling rate : 48.0 KHz
Compression mode : Lossy
Stream size : 135 MiB (1%)
Title : Dolby Digital | 2.0 | 48 kHz | 16 bit | 192 kbps | Багатоголосий [Так Треба Продакшн]
Language : Ukrainian
Default : No
Forced : No

Audio #3
ID : 4
Format :
Format/Info : Digital Theater Systems
Format profile : MA / Core
Mode : 16
Format settings, Endianness : Big
Codec ID : A_DTS
Duration : 1h 38mn
Bit rate mode : Variable
Bit rate : Unknown / 1 509 Kbps
Channel(s) : 2 channels
Channel positions : Front: L R
Sampling rate : 48.0 KHz
Bit depth : 24 bits
Compression mode : Lossless / Lossy
Title : -HD Ma | 5.1 | 48 kHz | 24 bit | 1509 kbps | Original
Language : English
Default : No
Forced : No

Text
ID : 5
Format : UTF-8
Codec ID : S_TEXT/UTF8
Codec ID/Info : UTF-8 Plain Text
Title : Full
Language : English
Default : No
Forced : No

Menu
00:00:00.000 : en:Title/Credits/Intro
00:04:22.637 : en:The Hold Up
00:06:17.085 : en:Ball Bustin'
00:11:04.623 : en:Something Else
00:15:49.991 : en:Old Debt
00:23:06.803 : en:The Only Solution
00:27:17.011 : en:Botched Robbery
00:35:49.231 : en:Blowin' Off Steam
00:41:15.056 : en:One Day At A Time
00:45:10.250 : en:Raw Deal
00:57:50.426 : en:The Only Way
01:05:22.169 : en:It Ain't Over
01:09:47.934 : en:Cowboy Boots
01:12:13.038 : en:Gunning for Goons
01:23:34.176 : en:Fair Deal
01:31:33.655 : en:Separate Ways
01:34:07.476 : en:End Credits
Скріншоти





Джерело:
Особиста оцінка: 10 - без зайвих вагань рекомендую всім!


Золотий реліз (завантажене не впливає на рейтинг)
 Трекер:    Зареєстрований   

Завантажити / скачати фільм українською



відео для новачків



 Зареєстрований:   2015-08-28 17:26
 Розмір:   16.77 GB 
 Оцінка фільму:   10/10 (Голосів: 4)
   
ultramuha 
Частий відвідувач


З нами з: 22.09.13
Востаннє: 04.12.16
Повідомлень: 26

2015-09-12 18:06  
Класика! Фільм про дружбу! Таких зараз не роблять.
bot 
робот


З нами з: 30.09.07
Востаннє: 26.05.05
Повідомлень: 16030

2016-07-24 22:15  
Тему перенесено з Фільми в HD до форуму Фінальний смітник


Alex60

bot 
робот


З нами з: 30.09.07
Востаннє: 26.05.05
Повідомлень: 16030

2016-07-25 13:34  
Тему перенесено з Фінальний смітник до форуму Фільми в HD


igor911

Ваш часовий пояс: GMT + 2 Години

Нова тема   Відповісти