Завантажити та скачати торренти українською


Замерзлі / Frozen (2010) 1080p Ukr/Eng | Sub Eng

Нові коментарі

Нова тема   Відповісти
Автор Повідомлення
famous37 
Відео Гуртом - фільмокрай
Відео Гуртом - фільмокрай


З нами з: 16.11.08
Востаннє: 03.12.16
Повідомлень: 539

2015-08-27 22:29  
Замерзлі / Frozen (2010) 1080p Ukr/Eng | Sub Eng

Замерзлі / Frozen (2010) 1080p Ukr/Eng | Sub Eng


Жанр: Драма, Трилер
Країна: США



Кінокомпанія: A Bigger Boat, ArieScope Pictures, Anchor Bay Films
Режисер: Адам Грін (Adam Green)
Актори: Емма Белл (Emma Bell), Шон Ешмор (Shawn Ashmore), Кевін Зегерс (Kevin Zegers), Ед Екерман (Ed Ackerman), Райлі Вандербілт (Rileah Vanderbilt), Кейн Ходдер (Kane Hodder), Адам Джонсон (Adam Johnson), Кріс Йорк (Chris York), Педер Мелхьоз (Peder Melhuse), Уілл Берретт (Will Barratt)

Сюжет:
Не вдивляйтеся в безодню, інакше безодня почне вдивлятися у вас. Три молоді людини — сноубордисти і лижник навіть і не підозрювали, як це може бути в реальності, і яке жахливе страхіття чекає на них. Вони застрягають на підйомнику, і веселий вечір в засніжених зимових горах перетворюється на пекло. Страшний холод і обпалюючий вітер несуть загибель нещасним, що опинилися в пастці на величезній висоті. Час працює проти них — ніхто не прийде на допомогу, адже гірськолижний курорт закритий на декілька днів. Залишається одне — рятуватися самим. Але щоб врятуватися — потрібно перемогти жах цієї ночі! Весь жах...


Тривалість: 01:33:18
Якість:
Відео:
кодек:
розмір кадру: 1920 х 800
бітрейт: 10.8 Mbps

Аудіо # 1:
мова: українська
переклад: багатоголосий закадровий
кодек: 5.1
бітрейт: 384 кб/с

Аудіо # 2:
мова: англійська
переклад: оригінал
кодек: 5.1
бітрейт: 640 кб/с

Джерело озвучення:


Субтитри:
мова: англійська
тип: програмні (м'які)
формат: *.srt
MediaInfo
General
Unique ID : 236414603000480518139380572770790821208 (0xB1DBCBDBAFD254598FF5641629384D58)
Complete name : D:\Фільми\Жахи\Frozen (2010) [Ukr, Eng] 1080p by famous37 [Hurtom].mkv
Format : Matroska
Format version : Version 4 / Version 2
File size : 7.69 GiB
Duration : 1h 33mn
Overall bit rate : 11.8 Mbps
Movie name : Frozen (2010) [Ukr, Eng] 1080p by famous37 [Hurtom]
Encoded date : UTC 2015-08-27 20:01:39
Writing application : mkvmerge v8.3.0 ('Over the Horizon') 64bit
Writing library : libebml v1.3.1 + libmatroska v1.4.2
DURATION : 01:27:49.889000000
NUMBER_OF_FRAMES : 1242
NUMBER_OF_BYTES : 39018
_STATISTICS_WRITING_APP : mkvmerge v8.3.0 ('Over the Horizon') 64bit
_STATISTICS_WRITING_DATE_UT : 2015-08-27 20:01:39
_STATISTICS_TAGS : BPS DURATION NUMBER_OF_FRAMES NUMBER_OF_BYTES

Video
ID : 1
Format : AVC
Format/Info : Advanced Video Codec
Format profile : [email protected]
Format settings, CABAC : Yes
Format settings, ReFrames : 4 frames
Codec ID : V_MPEG4/ISO/AVC
Duration : 1h 33mn
Bit rate : 10.8 Mbps
Width : 1 920 pixels
Height : 800 pixels
Display aspect ratio : 2.40:1
Frame rate mode : Constant
Frame rate : 23.976 fps
Color space : YUV
Chroma subsampling : 4:2:0
Bit depth : 8 bits
Scan type : Progressive
Bits/(Pixel*Frame) : 0.293
Stream size : 6.87 GiB (89%)
Writing library : core 98 r1649 20cbe10
Encoding settings : cabac=1 / ref=3 / deblock=1:-1:-1 / analyse=0x3:0x113 / me=umh / subme=10 / psy=1 / psy_rd=1.00:0.15 / mixed_ref=1 / me_range=32 / chroma_me=1 / trellis=2 / 8x8dct=1 / cqm=0 / deadzone=21,11 / fast_pskip=0 / chroma_qp_offset=-3 / threads=6 / sliced_threads=0 / nr=0 / decimate=1 / interlaced=0 / constrained_intra=0 / bframes=7 / b_pyramid=2 / b_adapt=2 / b_bias=0 / direct=1 / weightb=1 / weightp=2 / keyint=250 / keyint_min=25 / scenecut=40 / intra_refresh=0 / rc=2pass / mbtree=0 / bitrate=10790 / ratetol=1.0 / qcomp=0.60 / qpmin=10 / qpmax=51 / qpstep=4 / cplxblur=20.0 / qblur=0.5 / ip_ratio=1.40 / pb_ratio=1.30 / aq=1:0.80
Language : English
Default : No
Forced : No
DURATION : 01:33:18.561000000
NUMBER_OF_FRAMES : 134231
NUMBER_OF_BYTES : 7538926403
_STATISTICS_WRITING_APP : mkvmerge v8.3.0 ('Over the Horizon') 64bit
_STATISTICS_WRITING_DATE_UT : 2015-08-27 20:01:39
_STATISTICS_TAGS : BPS DURATION NUMBER_OF_FRAMES NUMBER_OF_BYTES

Audio #1
ID : 2
Format : AC-3
Format/Info : Audio Coding 3
Mode extension : CM (complete main)
Format settings, Endianness : Big
Codec ID : A_AC3
Duration : 1h 33mn
Bit rate mode : Constant
Bit rate : 384 Kbps
Channel(s) : 6 channels
Channel positions : Front: L C R, Side: L R, LFE
Sampling rate : 48.0 KHz
Compression mode : Lossy
Stream size : 256 MiB (3%)
Title : Многоголосый закадровый
Language : Ukrainian
Default : No
Forced : No

Audio #2
ID : 3
Format : AC-3
Format/Info : Audio Coding 3
Mode extension : CM (complete main)
Format settings, Endianness : Big
Codec ID : A_AC3
Duration : 1h 33mn
Bit rate mode : Constant
Bit rate : 640 Kbps
Channel(s) : 6 channels
Channel positions : Front: L C R, Side: L R, LFE
Sampling rate : 48.0 KHz
Compression mode : Lossy
Stream size : 427 MiB (5%)
Language : English
Default : No
Forced : No

Text
ID : 4
Format : UTF-8
Codec ID : S_TEXT/UTF8
Codec ID/Info : UTF-8 Plain Text
Language : English
Default : No
Forced : No

Menu
00:00:00.000 : en:00:00:00.000
00:12:13.899 : en:00:12:13.899
00:19:57.112 : en:00:19:57.112
00:31:07.740 : en:00:31:07.740
00:38:15.376 : en:00:38:15.376
00:51:03.268 : en:00:51:03.268
00:54:51.663 : en:00:54:51.663
00:58:43.978 : en:00:58:43.978
01:05:30.593 : en:01:05:30.593
01:18:49.975 : en:01:18:49.975
01:25:42.846 : en:01:25:42.846
01:28:31.848 : en:01:28:31.848
Скріншоти
Джерело:
Особиста оцінка: 10 - без зайвих вагань рекомендую всім!

Будь ласка, залишайтеся на роздачі!


 Трекер:    Зареєстрований   

Завантажити / скачати фільм українською



відео для новачків



 Зареєстрований:   2015-08-27 22:29
 Розмір:   7.69 GB 
 Оцінка фільму:   10/10 (Голосів: 4)
   
Інші релізи
   Замерзлі / Frozen (2010) 2xUkr/Eng krigg070  2 / 0   1.71 GB   2016-01-05 20:47 
   Замерзлі / Frozen (2010) 720p Ukr/Eng | Sub Eng leroykendall  1 / 0   5.75 GB   2012-03-04 17:43 
igor911 
Відео Гуртом
Відео Гуртом


З нами з: 18.01.08
Востаннє: 03.12.16
Повідомлень: 5113

2015-08-27 23:30  
famous37, за Правилами, скріншоти мають бути зроблені у форматі png (без втрати якості), перероби, будь ласка.
famous37 
Відео Гуртом - фільмокрай
Відео Гуртом - фільмокрай


З нами з: 16.11.08
Востаннє: 03.12.16
Повідомлень: 539

2015-08-27 23:35  
igor911
igor911 написано:
famous37, за Правилами, скріншоти мають бути зроблені у форматі png (без втрати якості), перероби, будь ласка.

Переробив.

Ваш часовий пояс: GMT + 2 Години

Нова тема   Відповісти