Завантажити та скачати торренти українською


Невидимий / The Invisible (2007) ВDRip 720p Ukr/Eng | Sub Eng

Нові коментарі

Нова тема   Відповісти
Автор Повідомлення
Anonymous 







2015-08-27 21:19  
Невидимий / The Invisible (2007) ВDRip 720p Ukr/Eng | Sub Eng



Оригінальні та альтернативні обкладинки, постери, шпалери












повнорозмірні зображення відкриються по кліку (з натиснутим CTRL чи кліком середньою кнопкою мишки - у іншій вкладці)


Жанр: фентезі, трилер, драма, кримінальний, детектив
Країна: США, Канада



Кінокомпанія: Hollywood Pictures, Spyglass Entertainment, Birnbaum / Barber Productions, Macari/Edelstein, Limbo Productions, Sonet Film AB
Режисер: Девід С. Гойєр / David S. Goyer
Актори: Джастін Четвін, Маргарита Лєвієва, Марша Гей Харден, Кріс Маркетт, Алекс О'Лаглін, Калум Кіт Ренні

Сюжет:
Нікові приготоване блискуче майбутнє, але через безглузду і фатальну випадковість він стає жертвою жорстокого нападу… Нік не вмирає, проте його душа покидає тіло. Його сполохана душа губиться поміж двох світів і намагається знайти спокій, та дарма. Тим часом поліція запекло розшукує Ніка, не підозрюючи, що лише лічені хвилини відокремлюють його від справжньої загибелі. За трагічною іронією врятувати його може лише дівчина, яка ховається від закону, жорстока злодійка, чиєю жертвою й став Нік.


Тривалість: 01:42:22
Якість: 720p
Відео:
кодек:
розмір кадру: 1280 х 528
бітрейт: 5474 кбіт/с

Аудіо # 1:
мова: українська
переклад: багатоголосий закадровий - Новий Канал
кодек: 5.1
бітрейт: 384 кбіт/с

Аудіо # 2:
мова: англійська
переклад: оригінал
кодек: 5.1
бітрейт: 1509 кбіт/с

Аудіо # 3:
мова: англійська
переклад: коментарі режисера Девіда С. Гойєра та сценариста Крістін Роум
кодек: 2.0
бітрейт: 192 кбіт/с

Аудіо # 4:
мова: англійська
переклад: коментарі сценариста Майкла Девіса
кодек: 2.0
бітрейт: 192 кбіт/с

Субтитри # 1-2:
мова: англійська (повні, SDH)
тип: програмні (м'які)
формат: *.srt

Субтитри # 3-4:
мова: англійська (на коментатрі #1, на коментарі #2)
тип: програмні (м'які)
формат: *.srt

Збережено оригінальні розділи, як на Blu-ray.
MediaInfo
Код:
General
Unique ID                   : 210352655697913029863960029712261487153 (0x9E4072A63B63D3C69BFBB183F0669A31)
Complete name               : The Invisible (2007) [Ukr,Eng sub.Eng] 720p [Hurtom & HDClub].mkv
Format                      : Matroska
Format version              : Version 4 / Version 2
File size                   : 5.55 GiB
Duration                    : 1h 42mn
Overall bit rate            : 7 754 Kbps
Movie name                  : Невидимий / The Invisible (2007) [Ukr,Eng sub.Eng] 720p [Hurtom & HDClub]
Encoded date                : UTC 2015-08-27 12:26:56
Writing application         : mkvmerge v8.3.0 ('Over the Horizon') 64bit
Writing library             : libebml v1.3.1 + libmatroska v1.4.2
Attachements                : cover.jpg
DURATION                    : 01:34:45.722000000
NUMBER_OF_FRAMES            : 1299
NUMBER_OF_BYTES             : 46945
_STATISTICS_WRITING_APP     : mkvmerge v8.3.0 ('Over the Horizon') 64bit
_STATISTICS_WRITING_DATE_UT : 2015-08-27 12:26:56
_STATISTICS_TAGS            : BPS DURATION NUMBER_OF_FRAMES NUMBER_OF_BYTES

Video
ID                          : 1
Format                      : AVC
Format/Info                 : Advanced Video Codec
Format profile              : [email protected]
Format settings, CABAC      : Yes
Format settings, ReFrames   : 8 frames
Codec ID                    : V_MPEG4/ISO/AVC
Duration                    : 1h 42mn
Bit rate                    : 5 474 Kbps
Width                       : 1 280 pixels
Height                      : 528 pixels
Display aspect ratio        : 2.40:1
Frame rate mode             : Constant
Frame rate                  : 23.976 fps
Color space                 : YUV
Chroma subsampling          : 4:2:0
Bit depth                   : 8 bits
Scan type                   : Progressive
Bits/(Pixel*Frame)          : 0.338
Stream size                 : 3.81 GiB (69%)
Title                       : Невидимий / The Invisible / Невидимый (2007) ВDRip 720p [SEPTiC]
Writing library             : core 56 svn-680
Encoding settings           : cabac=1 / ref=5 / deblock=1:-3:-2 / analyse=0x1:0 / me=umh / subme=7 / brdo=1 / mixed_ref=1 / me_range=16 / chroma_me=1 / trellis=1 / 8x8dct=0 / cqm=2 / deadzone=21,11 / chroma_qp_offset=0 / threads=4 / nr=0 / decimate=1 / mbaff=0 / bframes=3 / b_pyramid=1 / b_adapt=1 / b_bias=0 / direct=1 / wpredb=1 / bime=1 / keyint=250 / keyint_min=25 / scenecut=40(pre) / rc=2pass / bitrate=5474 / ratetol=1.0 / rceq='blurCplx^(1-qComp)' / qcomp=0.60 / qpmin=10 / qpmax=51 / qpstep=4 / cplxblur=20.0 / qblur=0.5 / ip_ratio=1.40 / pb_ratio=1.30
Language                    : English
Default                     : Yes
Forced                      : No

Audio #1
ID                          : 2
Format                      : AC-3
Format/Info                 : Audio Coding 3
Mode extension              : CM (complete main)
Format settings, Endianness : Big
Codec ID                    : A_AC3
Duration                    : 1h 42mn
Bit rate mode               : Constant
Bit rate                    : 384 Kbps
Channel(s)                  : 6 channels
Channel positions           : Front: L C R, Side: L R, LFE
Sampling rate               : 48.0 KHz
Compression mode            : Lossy
Stream size                 : 281 MiB (5%)
Title                       : MVO [Novyj,K1] 5.1 384 kbps [Hurtom-rooster,xslim]
Language                    : Ukrainian
Default                     : Yes
Forced                      : No

Audio #2
ID                          : 3
Format                      :
Format/Info                 : Digital Theater Systems
Mode                        : 16
Format settings, Endianness : Big
Codec ID                    : A_DTS
Duration                    : 1h 42mn
Bit rate mode               : Constant
Bit rate                    : 1 509 Kbps
Channel(s)                  : 6 channels
Channel positions           : Front: L C R, Side: L R, LFE
Sampling rate               : 48.0 KHz
Bit depth                   : 24 bits
Compression mode            : Lossy
Stream size                 : 1.08 GiB (19%)
Title                       : Original 5.1 1509 kbps
Language                    : English
Default                     : No
Forced                      : No

Audio #3
ID                          : 4
Format                      : AC-3
Format/Info                 : Audio Coding 3
Mode extension              : CM (complete main)
Format settings, Endianness : Big
Codec ID                    : A_AC3
Duration                    : 1h 42mn
Bit rate mode               : Constant
Bit rate                    : 192 Kbps
Channel(s)                  : 2 channels
Channel positions           : Front: L R
Sampling rate               : 48.0 KHz
Compression mode            : Lossy
Stream size                 : 141 MiB (2%)
Title                       : Commentary with director David S. Goyer and writer Christine Roum
Language                    : English
Default                     : No
Forced                      : No

Audio #4
ID                          : 5
Format                      : AC-3
Format/Info                 : Audio Coding 3
Mode extension              : CM (complete main)
Format settings, Endianness : Big
Codec ID                    : A_AC3
Duration                    : 1h 42mn
Bit rate mode               : Constant
Bit rate                    : 192 Kbps
Channel(s)                  : 2 channels
Channel positions           : Front: L R
Sampling rate               : 48.0 KHz
Compression mode            : Lossy
Stream size                 : 141 MiB (2%)
Title                       : Commentary with writer Mick Davis
Language                    : English
Default                     : No
Forced                      : No

Text #1
ID                          : 6
Format                      : UTF-8
Codec ID                    : S_TEXT/UTF8
Codec ID/Info               : UTF-8 Plain Text
Title                       : Eng full
Language                    : English
Default                     : No
Forced                      : No

Text #2
ID                          : 7
Format                      : UTF-8
Codec ID                    : S_TEXT/UTF8
Codec ID/Info               : UTF-8 Plain Text
Title                       : Eng SDH
Language                    : English
Default                     : No
Forced                      : No

Text #3
ID                          : 8
Format                      : UTF-8
Codec ID                    : S_TEXT/UTF8
Codec ID/Info               : UTF-8 Plain Text
Title                       : Commentary with director David S. Goyer and writer Christine Roum
Language                    : English
Default                     : No
Forced                      : No

Text #4
ID                          : 9
Format                      : UTF-8
Codec ID                    : S_TEXT/UTF8
Codec ID/Info               : UTF-8 Plain Text
Title                       : Commentary with writer Mick Davis
Language                    : English
Default                     : No
Forced                      : No

Menu
00:00:00.000                : en:Chapter 01
00:04:36.275                : en:Chapter 02
00:12:03.972                : en:Chapter 03
00:17:13.156                : en:Chapter 04
00:23:30.826                : en:Chapter 05
00:31:57.080                : en:Chapter 06
00:38:15.668                : en:Chapter 07
00:44:17.152                : en:Chapter 08
00:49:48.527                : en:Chapter 09
00:55:06.719                : en:Chapter 10
01:02:03.594                : en:Chapter 11
01:09:46.555                : en:Chapter 12
01:15:30.859                : en:Chapter 13
01:22:00.414                : en:Chapter 14
01:26:05.118                : en:Chapter 15
01:33:19.135                : en:Chapter 16




Джерела та подяки: &
ріп відео - SEPTiC; українська доріжка - rooster - зведення, xslim - запис з ТБ; українізовані постери - rooster, Тирік (всі - Гуртом).






ЗАЛИШАЙТЕСЬ ЯКОМОГА ДОВШЕ НА РОЗДАЧІ!

СКАЧАВ САМ - ДАЙ СКАЧАТИ ІНШИМ


 Трекер:    Зареєстрований   

Завантажити / скачати фільм українською



відео для новачків



 Зареєстрований:   2015-08-27 21:19
 Розмір:   5.55 GB 
 Оцінка фільму:   3.8/10 (Голосів: 16)
   
Інші релізи
   Невидимий / The Invisible (2007) ВDRip 1080p Ukr/Eng | Sub Eng igor911  1 / 0   9.71 GB   2015-08-27 17:53 
   Невидимий / The Invisible (2007) ВDRip Ukr/Eng rooster  3 / 1   2.19 GB   2010-08-16 18:50 
   Невидимий / The Invisible (2007) urij546724  0 / 0   1.3 GB   2010-07-15 14:33 
Ваш часовий пояс: GMT + 2 Години

Нова тема   Відповісти