Завантажити та скачати торренти українською


Невидимий / The Invisible (2007) ВDRip 1080p Ukr/Eng | Sub Eng

Нові коментарі

Нова тема   Відповісти
Автор Повідомлення
Anonymous 







2015-08-27 17:53  
Невидимий / The Invisible (2007) ВDRip 1080p Ukr/Eng | Sub Eng



Оригінальні та альтернативні обкладинки, постери, шпалери












повнорозмірні зображення відкриються по кліку (з натиснутим CTRL чи кліком середньою кнопкою мишки - у іншій вкладці)


Жанр: фентезі, трилер, драма, кримінальний, детектив
Країна: США, Канада



Кінокомпанія: Hollywood Pictures, Spyglass Entertainment, Birnbaum / Barber Productions, Macari/Edelstein, Limbo Productions, Sonet Film AB
Режисер: Девід С. Гойєр / David S. Goyer
Актори: Джастін Четвін, Маргарита Лєвієва, Марша Гей Харден, Кріс Маркетт, Алекс О'Лаглін, Калум Кіт Ренні

Сюжет:
Нікові приготоване блискуче майбутнє, але через безглузду і фатальну випадковість він стає жертвою жорстокого нападу… Нік не вмирає, проте його душа покидає тіло. Його сполохана душа губиться поміж двох світів і намагається знайти спокій, та дарма. Тим часом поліція запекло розшукує Ніка, не підозрюючи, що лише лічені хвилини відокремлюють його від справжньої загибелі. За трагічною іронією врятувати його може лише дівчина, яка ховається від закону, жорстока злодійка, чиєю жертвою й став Нік.


Тривалість: 01:42:22
Якість: 1080p
Відео:
кодек:
розмір кадру: 1920 х 1080
бітрейт: 11 Мбіт/с [crf=18]

Аудіо # 1:
мова: українська
переклад: багатоголосий закадровий - Новий Канал
кодек: 5.1
бітрейт: 384 кбіт/с

Аудіо # 2:
мова: англійська
переклад: оригінал
кодек: 5.1
бітрейт: 1509 кбіт/с

Аудіо # 3:
мова: англійська
переклад: коментарі режисера Девіда С. Гойєра та сценариста Крістін Роум
кодек: 2.0
бітрейт: 192 кбіт/с

Аудіо # 4:
мова: англійська
переклад: коментарі сценариста Майкла Девіса
кодек: 2.0
бітрейт: 192 кбіт/с

Субтитри # 1-2:
мова: англійська (повні, SDH)
тип: програмні (м'які)
формат: *.srt

Субтитри # 3-4:
мова: англійська (на коментатрі #1, на коментарі #2)
тип: програмні (м'які)
формат: *.srt

Збережено оригінальні розділи, як на Blu-ray.
MediaInfo та log
Код:
General
Unique ID                   : 212079519300996696870038714589899009222 (0x9F8D079931A61A76B4CB9E5B07662CC6)
Complete name               : The Invisible (2007) [Ukr,Eng sub.Eng] 1080p [Hurtom & HDClub].mkv
Format                      : Matroska
Format version              : Version 4 / Version 2
File size                   : 9.71 GiB
Duration                    : 1h 42mn
Overall bit rate            : 13.6 Mbps
Movie name                  : Невидимий / The Invisible (2007) [Ukr,Eng sub.Eng] 1080p [Hurtom & HDClub]
Encoded date                : UTC 2015-08-27 13:02:13
Writing application         : mkvmerge v8.3.0 ('Over the Horizon') 64bit
Writing library             : libebml v1.3.1 + libmatroska v1.4.2
Attachements                : cover.jpg / logfile.log
DURATION                    : 01:34:45.722000000
NUMBER_OF_FRAMES            : 1299
NUMBER_OF_BYTES             : 46945
_STATISTICS_WRITING_APP     : mkvmerge v8.3.0 ('Over the Horizon') 64bit
_STATISTICS_WRITING_DATE_UT : 2015-08-27 13:02:13
_STATISTICS_TAGS            : BPS DURATION NUMBER_OF_FRAMES NUMBER_OF_BYTES

Video
ID                          : 1
Format                      : AVC
Format/Info                 : Advanced Video Codec
Format profile              : [email protected]
Format settings, CABAC      : Yes
Format settings, ReFrames   : 5 frames
Codec ID                    : V_MPEG4/ISO/AVC
Duration                    : 1h 42mn
Bit rate                    : 11.0 Mbps
Width                       : 1 920 pixels
Height                      : 800 pixels
Display aspect ratio        : 2.40:1
Frame rate mode             : Constant
Frame rate                  : 23.976 fps
Color space                 : YUV
Chroma subsampling          : 4:2:0
Bit depth                   : 8 bits
Scan type                   : Progressive
Bits/(Pixel*Frame)          : 0.300
Stream size                 : 7.89 GiB (81%)
Title                       : Невидимий / The Invisible / Невидимый (2007) ВDRip 1080p [HDClub-N1NT3NDO]
Writing library             : core 146 r0+2586 e393126 t_mod_Custom [[email protected] X86_64]
Encoding settings           : cabac=1 / ref=5 / deblock=1:-3:-3 / analyse=0x3:0x133 / me=umh / subme=11 / psy=1 / fade_compensate=0.00 / psy_rd=1.05:0.00 / mixed_ref=1 / me_range=32 / chroma_me=1 / trellis=2 / 8x8dct=1 / cqm=0 / deadzone=21,11 / fast_pskip=0 / chroma_qp_offset=-2 / threads=12 / lookahead_threads=3 / sliced_threads=0 / nr=0 / decimate=1 / interlaced=0 / bluray_compat=0 / constrained_intra=0 / fgo=0 / bframes=10 / b_pyramid=2 / b_adapt=2 / b_bias=0 / direct=3 / weightb=1 / open_gop=0 / weightp=2 / keyint=240 / keyint_min=23 / scenecut=40 / intra_refresh=0 / rc_lookahead=80 / rc=crf / mbtree=0 / crf=18.0000 / qcomp=0.70 / qpmin=0:0:0 / qpmax=69:69:69 / qpstep=4 / vbv_maxrate=50000 / vbv_bufsize=62500 / crf_max=0.0 / nal_hrd=none / filler=0 / ip_ratio=1.40 / pb_ratio=1.30 / aq=1:0.70 / aq-sensitivity=10.00 / aq-factor=1.00:1.00:1.00 / aq2=0 / aq3=0
Language                    : English
Default                     : Yes
Forced                      : No

Audio #1
ID                          : 2
Format                      : AC-3
Format/Info                 : Audio Coding 3
Mode extension              : CM (complete main)
Format settings, Endianness : Big
Codec ID                    : A_AC3
Duration                    : 1h 42mn
Bit rate mode               : Constant
Bit rate                    : 384 Kbps
Channel(s)                  : 6 channels
Channel positions           : Front: L C R, Side: L R, LFE
Sampling rate               : 48.0 KHz
Compression mode            : Lossy
Stream size                 : 281 MiB (3%)
Title                       : MVO [Novyj,K1] 5.1 384 kbps [Hurtom-rooster,xslim]
Language                    : Ukrainian
Default                     : Yes
Forced                      : No

Audio #2
ID                          : 3
Format                      :
Format/Info                 : Digital Theater Systems
Mode                        : 16
Format settings, Endianness : Big
Codec ID                    : A_DTS
Duration                    : 1h 42mn
Bit rate mode               : Constant
Bit rate                    : 1 509 Kbps
Channel(s)                  : 6 channels
Channel positions           : Front: L C R, Side: L R, LFE
Sampling rate               : 48.0 KHz
Bit depth                   : 24 bits
Compression mode            : Lossy
Stream size                 : 1.08 GiB (11%)
Title                       : Original 5.1 1509 kbps
Language                    : English
Default                     : No
Forced                      : No

Audio #3
ID                          : 4
Format                      : AC-3
Format/Info                 : Audio Coding 3
Mode extension              : CM (complete main)
Format settings, Endianness : Big
Codec ID                    : A_AC3
Duration                    : 1h 42mn
Bit rate mode               : Constant
Bit rate                    : 192 Kbps
Channel(s)                  : 2 channels
Channel positions           : Front: L R
Sampling rate               : 48.0 KHz
Compression mode            : Lossy
Stream size                 : 141 MiB (1%)
Title                       : Commentary with director David S. Goyer and writer Christine Roum
Language                    : English
Default                     : No
Forced                      : No

Audio #4
ID                          : 5
Format                      : AC-3
Format/Info                 : Audio Coding 3
Mode extension              : CM (complete main)
Format settings, Endianness : Big
Codec ID                    : A_AC3
Duration                    : 1h 42mn
Bit rate mode               : Constant
Bit rate                    : 192 Kbps
Channel(s)                  : 2 channels
Channel positions           : Front: L R
Sampling rate               : 48.0 KHz
Compression mode            : Lossy
Stream size                 : 141 MiB (1%)
Title                       : Commentary with writer Mick Davis
Language                    : English
Default                     : No
Forced                      : No

Text #1
ID                          : 6
Format                      : UTF-8
Codec ID                    : S_TEXT/UTF8
Codec ID/Info               : UTF-8 Plain Text
Title                       : Eng full
Language                    : English
Default                     : No
Forced                      : No

Text #2
ID                          : 7
Format                      : UTF-8
Codec ID                    : S_TEXT/UTF8
Codec ID/Info               : UTF-8 Plain Text
Title                       : Eng SDH
Language                    : English
Default                     : No
Forced                      : No

Text #3
ID                          : 8
Format                      : UTF-8
Codec ID                    : S_TEXT/UTF8
Codec ID/Info               : UTF-8 Plain Text
Title                       : Commentary with director David S. Goyer and writer Christine Roum
Language                    : English
Default                     : No
Forced                      : No

Text #4
ID                          : 9
Format                      : UTF-8
Codec ID                    : S_TEXT/UTF8
Codec ID/Info               : UTF-8 Plain Text
Title                       : Commentary with writer Mick Davis
Language                    : English
Default                     : No
Forced                      : No

Menu
00:00:00.000                : :Chapter 01
00:04:36.275                : :Chapter 02
00:12:03.972                : :Chapter 03
00:17:13.156                : :Chapter 04
00:23:30.826                : :Chapter 05
00:31:57.080                : :Chapter 06
00:38:15.668                : :Chapter 07
00:44:17.152                : :Chapter 08
00:49:48.527                : :Chapter 09
00:55:06.719                : :Chapter 10
01:02:03.594                : :Chapter 11
01:09:46.555                : :Chapter 12
01:15:30.859                : :Chapter 13
01:22:00.414                : :Chapter 14
01:26:05.118                : :Chapter 15
01:33:19.135                : :Chapter 16


Код:
[info]: frame I:1301  Avg QP:16.36  size:231476
[info]: frame P:34767 Avg QP:17.53  size: 94390
[info]: frame B:111209 Avg QP:20.08  size: 45800
[info]: consecutive B-frames:  2.3%  4.2%  7.7% 36.3% 13.7% 30.3%  1.8%  3.1%  0.4%  0.1%  0.2%
Оригінал <----------> Ріп











Джерела та подяки: &
ріп відео, оригінальні звук та субтитри - N1NT3NDO (HDClub); українська доріжка - rooster - зведення, xslim - запис з ТБ; українізовані постери - rooster, Тирік (всі - Гуртом).






ЗАЛИШАЙТЕСЬ ЯКОМОГА ДОВШЕ НА РОЗДАЧІ!

СКАЧАВ САМ - ДАЙ СКАЧАТИ ІНШИМ


 Трекер:    Зареєстрований   

Завантажити / скачати фільм українською



відео для новачків



 Зареєстрований:   2015-08-27 17:53
 Розмір:   9.71 GB 
 Оцінка фільму:   4.4/10 (Голосів: 17)
   
Інші релізи
   Невидимий / The Invisible (2007) ВDRip 720p Ukr/Eng | Sub Eng igor911  2 / 0   5.55 GB   2015-08-27 21:19 
   Невидимий / The Invisible (2007) ВDRip Ukr/Eng rooster  4 / 0   2.19 GB   2010-08-16 18:50 
   Невидимий / The Invisible (2007) urij546724  0 / 0   1.3 GB   2010-07-15 14:33 
intrino 
Частий відвідувач


З нами з: 09.06.09
Востаннє: 07.12.16
Повідомлень: 28

2015-08-27 20:17  
Гарний фільм, рекомендую.
Anonymous 







2015-08-27 21:25  
Ось 720p
Ua.bos_01 
VIP


З нами з: 22.06.15
Востаннє: 06.12.16
Повідомлень: 1291

2015-09-09 19:11  
Тема фільму не нова, однак дещо в ньому мене все ж таки зачепило. Такий собі драматичний сюжет, який примушує додивитися до кінця фільм, щоб зрозуміти яка вона розв'язка, а розв'язка зовсім не стандартна. Переглянути можна.
Ваш часовий пояс: GMT + 2 Години

Нова тема   Відповісти