Завантажити та скачати торренти українською


Мрець / Покійник / Dead Man (1995) 720p 2xUkr/Eng | Sub Eng

Нові коментарі

Нова тема   Відповісти
Автор Повідомлення
Anonymous 







2015-08-26 23:11  
Мрець / Покійник / Dead Man (1995) 720p 2xUkr/Eng | Sub Eng



Альтернативні обкладинки та постери










повнорозмірні зображення відкриються по кліку (з натиснутим CTRL чи кліком середньою кнопкою мишки - у іншій вкладці)


Жанр: драма, вестерн, фентезі, психологічний
Країна: США, Німеччина, Японія



Кінокомпанія: Pandora Filmproduktion, JVC Entertainment Networks, Newmarket Capital Group, 12 Gauge Productions
Режисер: Джим Джармуш / Jim Jarmusch

Актори: Джонні Деп / Johnny Depp, Ґарі Фармер / Gary Farmer, Мілі Евітал / Mili Avital, Кріспін Ґловер / Crispin Glover, Ланс Генріксен / Lance Henriksen, Майкл Вінкот / Michael Wincott, Юджин Берд / Eugene Byrd, Джон Гарт / John Hurt, Роберт Мічем / Robert Mitchum, Іґґі Поп / Iggy Pop, Ґебріел Берн / Gabriel Byrne, Джаред Гарріс / Jared Harris та інші

Сюжет:
Після смерті батьків молодий обліковець Вільям Блейк у пошуках роботи приїжджає на Дикий Захід. Але замість роботи він знаходить проблеми, випадково застреливши сина місцевого крутелика. За його голову призначається винагорода у 500 доларів. Пораненого в груди біля серця, Блейка виходжує індіанець, якого багато років возили по містах Америки та Англії як живого експоната. Він сприйняв цього юнака в окулярах за поета Вільяма Блейка, чиї вірші запали в серце "дикуна", і став його ангелом-охоронцем. А Блейк, позбувшись окулярів, сам раптом став стріляти без промаху, збільшуючи вартість своєї голови, залишаючи за собою слід з трупів осіб, охочих до винагороди, і наближаючись до того місця, звідки приходять і куди повертаються усі духи ...


Рейтинг MPAA: R - особам до 17 років обов'язкова присутність батьків або дорослого опікуна
Вікова категорія: 18+

Тривалість: 02:01:05
Якість: 720p
Відео:
кодек:
розмір кадру: 1280 х 716
бітрейт: 7535 кбіт/с

Аудіо # 1:
мова: українська
переклад: двоголосий закадровий - Компанія «Кіт»
кодек: 2.0
бітрейт: 192 кбіт/с

Аудіо # 2:
мова: українська
переклад: багатоголосий закадровий - Товариство "Три Крапки"
кодек: 2.0
бітрейт: 192 кбіт/с

Аудіо # 3:
мова: англійська
переклад: оригінал
кодек: 2.0
бітрейт: 224 кбіт/с

Субтитри:
мова: англійська
тип: програмні (м'які)
формат: *.srt
MediaInfo
Код:
General
Unique ID                   : 235811657349380319245546319413718678808 (0xB167AC57A71D1536B137546BDCADFD18)
Complete name               : Dead Man (1995) [2xUkr,Eng sub.Eng] 720p [Hurtom].mkv
Format                      : Matroska
Format version              : Version 4 / Version 2
File size                   : 6.89 GiB
Duration                    : 2h 1mn
Overall bit rate            : 8 146 Kbps
Movie name                  : Мрець / Покійник / Dead Man (1995) [2xUkr,Eng sub.Eng] 720p [Hurtom]
Encoded date                : UTC 2015-08-26 18:55:54
Writing application         : mkvmerge v8.3.0 ('Over the Horizon') 64bit
Writing library             : libebml v1.3.1 + libmatroska v1.4.2
Attachements                : cover.jpg
DURATION                    : 02:01:04.896000000
NUMBER_OF_FRAMES            : 227028
NUMBER_OF_BYTES             : 174357504
_STATISTICS_WRITING_APP     : mkvmerge v8.3.0 ('Over the Horizon') 64bit
_STATISTICS_WRITING_DATE_UT : 2015-08-26 18:55:54
_STATISTICS_TAGS            : BPS DURATION NUMBER_OF_FRAMES NUMBER_OF_BYTES

Video
ID                          : 1
Format                      : AVC
Format/Info                 : Advanced Video Codec
Format profile              : [email protected]
Format settings, CABAC      : Yes
Format settings, ReFrames   : 8 frames
Codec ID                    : V_MPEG4/ISO/AVC
Duration                    : 2h 1mn
Bit rate                    : 7 535 Kbps
Width                       : 1 280 pixels
Height                      : 716 pixels
Display aspect ratio        : 16:9
Frame rate mode             : Constant
Frame rate                  : 23.976 fps
Color space                 : YUV
Chroma subsampling          : 4:2:0
Bit depth                   : 8 bits
Scan type                   : Progressive
Bits/(Pixel*Frame)          : 0.343
Stream size                 : 6.24 GiB (91%)
Title                       : Мрець / Покійник / Dead Man / Мертвец (1995) 720p [HDbits-fty]
Writing library             : core 79 r1332M 70f8869
Encoding settings           : cabac=1 / ref=8 / deblock=1:-3:-3 / analyse=0x3:0x113 / me=tesa / subme=10 / psy=1 / psy_rd=1.0:0.0 / mixed_ref=1 / me_range=16 / chroma_me=1 / trellis=2 / 8x8dct=1 / cqm=0 / deadzone=21,11 / chroma_qp_offset=-2 / threads=6 / nr=0 / decimate=0 / mbaff=0 / constrained_intra=0 / bframes=5 / b_pyramid=0 / b_adapt=2 / b_bias=0 / direct=3 / wpredb=1 / wpredp=2 / keyint=250 / keyint_min=25 / scenecut=40 / rc_lookahead=150 / rc=2pass / mbtree=1 / bitrate=7535 / ratetol=1.0 / qcomp=0.60 / qpmin=10 / qpmax=51 / qpstep=4 / cplxblur=20.0 / qblur=0.5 / ip_ratio=1.40 / aq=1:0.95
Language                    : English
Default                     : Yes
Forced                      : No
DURATION                    : 02:01:05.133000000
NUMBER_OF_FRAMES            : 174189
NUMBER_OF_BYTES             : 6842639394
_STATISTICS_WRITING_APP     : mkvmerge v8.3.0 ('Over the Horizon') 64bit
_STATISTICS_WRITING_DATE_UT : 2015-08-26 18:55:54
_STATISTICS_TAGS            : BPS DURATION NUMBER_OF_FRAMES NUMBER_OF_BYTES

Audio #1
ID                          : 2
Format                      : AC-3
Format/Info                 : Audio Coding 3
Mode extension              : CM (complete main)
Format settings, Endianness : Big
Codec ID                    : A_AC3
Duration                    : 2h 1mn
Bit rate mode               : Constant
Bit rate                    : 192 Kbps
Channel(s)                  : 2 channels
Channel positions           : Front: L R
Sampling rate               : 48.0 KHz
Compression mode            : Lossy
Stream size                 : 166 MiB (2%)
Title                       : DVO [TONIS-KIT] 2.0 192 kbps [Hurtom-Arsenfpu]
Language                    : Ukrainian
Default                     : Yes
Forced                      : No

Audio #2
ID                          : 3
Format                      : AC-3
Format/Info                 : Audio Coding 3
Mode extension              : CM (complete main)
Format settings, Endianness : Big
Codec ID                    : A_AC3
Duration                    : 2h 1mn
Bit rate mode               : Constant
Bit rate                    : 192 Kbps
Channel(s)                  : 2 channels
Channel positions           : Front: L R
Sampling rate               : 48.0 KHz
Compression mode            : Lossy
Stream size                 : 166 MiB (2%)
Title                       : MVO [3Dots] 2.0 192 kbps [Hurtom-Leben]
Language                    : Ukrainian
Default                     : No
Forced                      : No

Audio #3
ID                          : 4
Format                      : AC-3
Format/Info                 : Audio Coding 3
Mode extension              : CM (complete main)
Format settings, Endianness : Big
Codec ID                    : A_AC3
Duration                    : 2h 1mn
Bit rate mode               : Constant
Bit rate                    : 224 Kbps
Channel(s)                  : 2 channels
Channel positions           : Front: L R
Sampling rate               : 48.0 KHz
Compression mode            : Lossy
Stream size                 : 194 MiB (3%)
Title                       : Orirginal 2.0 224 kbps
Language                    : English
Default                     : No
Forced                      : No

Text
ID                          : 5
Format                      : UTF-8
Codec ID                    : S_TEXT/UTF8
Codec ID/Info               : UTF-8 Plain Text
Language                    : English
Default                     : No
Forced                      : No




Джерела та подяки:
ріп відео, оригінальні звук та субтитри - fty (HDbits); українські доріжки - (1) Arsenfpu, (2) Leben; українізовані постери - zgryvus, Три крапки (всі - Гуртом).





ЗАЛИШАЙТЕСЬ ЯКОМОГА ДОВШЕ НА РОЗДАЧІ!

СКАЧАВ САМ - ДАЙ СКАЧАТИ ІНШИМ


Золотий реліз (завантажене не впливає на рейтинг)
 Трекер:    Зареєстрований   

Завантажити / скачати фільм українською



відео для новачків



 Зареєстрований:   2015-08-26 23:11
 Розмір:   6.89 GB 
 Оцінка фільму:   5/10 (Голосів: 18)
   
Інші релізи
   Мрець / Покійник / Dead Man (1995) 2xUkr/Eng Arsenfpu  3 / 0   1.78 GB   2015-08-26 12:14 
experimedia 
Новенький


З нами з: 25.05.11
Востаннє: 30.11.16
Повідомлень: 13

2016-03-28 19:07  
геніальний фільм та геніальний режисер
Ваш часовий пояс: GMT + 2 Години

Нова тема   Відповісти