Завантажити та скачати торренти українською


Попелюшка / Cinderella (2015) Remux 1080p Ukr/Eng | Sub Ukr/Eng

Нові коментарі

Нова тема   Відповісти
Автор Повідомлення
Alex60 
Забанено
Забанено


З нами з: 06.12.14
Востаннє: 24.07.16
Повідомлень: 40

2015-08-26 13:40  
Попелюшка / Cinderella (2015) Remux 1080p Ukr/Eng | Sub Ukr/Eng

Попелюшка / Cinderella (2015) Remux 1080p Ukr/Eng | Sub Ukr/Eng


Жанр: пригодницький, фентезі, казка, мелодрама
Країна: США, Велика Британія



Кінокомпанія: Allison Shearmur Productions, Beagle Pug Films, Genre Films, Walt Disney Pictures
Режисер: Кеннет Брана
Актори: Лілі Джеймс, Кейт Бланшет, Річард Медден, Гелена Бонем Картер, Нонсо Анозі, Стеллан Скарсґард та iншi

Сюжет:
Батько молодої дівчини на ім'я Елла, залишившись вдівцем, одружується вдруге, і незабаром Елла опиняється сам-на-сам з жадібними і заздрісними новими родичками - мачухою леді Тремейн і її дочками - Анастасією та Дрізеллою. З господині будинку вона перетворюється на служницю, вічно забруднену сажею, за що і отримує від своїх сварливих зведених сестриць прізвисько - Попелюшка. Незважаючи на халепи, що випали на її долю, Попелюшка не зневіряється, адже навіть у найважчі моменти знаходиться щось, що допомагає їй думати про хороше: наприклад, випадкова зустріч на лісовій стежці з прекрасним юнаком. Елла навіть не припускає, що зустрілася з самим принцом, і що незабаром Фея-хрещена назавжди змінить її життя на краще.


Тривалість: 01:45:22
Якість: Remux
Відео:
кодек:
розмір кадру: 1920 х 1080
бітрейт: 30725 кб/с

Аудіо # 1:
мова: українська
переклад: професійний дубльований [iTunes]
кодек: 5.1
бітрейт: 384 кб/с

Аудіо # 2:
мова: українська
переклад: професійний дубльований
кодек: 5.1
бітрейт: 1509 кб/с

Аудіо # 3:
мова: англійська
переклад: оригінал
кодек: -HD 5.1
бітрейт: 1536 кб/с

Аудіо # 4:
мова: англійська
переклад: оригінал
кодек: -HD 7.1
бітрейт: 4917 кб/с

Субтитри: [Full] iTunes
мова: українська
тип: програмні (м'які)
формат: *.srt

Субтитри: [Full] iTunes
мова: англійська
тип: програмні (м'які)
формат: *.srt
MediaInfo
General
General
Unique ID : 170389181712150561366482935189550856631 (0x802FC3420149D798A2B2A8880A4EF9B7)
Complete name : S:\Cinderella [2015] Remux 1080p UkrEng.mkv
Format : Matroska
Format version : Version 4 / Version 2
File size : 28.7 GiB
Duration : 1h 45mn
Overall bit rate mode : Variable
Overall bit rate : 38.9 Mbps
Encoded date : UTC 2015-08-26 14:33:37
Writing application : mkvmerge v6.8.0 ('Theme for Great Cities') 64bit built on Mar 2 2014 21:34:26
Writing library : libebml v1.3.0 + libmatroska v1.4.1
Attachment : Yes

Video
ID : 1
Format : AVC
Format/Info : Advanced Video Codec
Format profile : [email protected]
Format settings, CABAC : Yes
Format settings, ReFrames : 4 frames
Codec ID : V_MPEG4/ISO/AVC
Duration : 1h 45mn
Bit rate mode : Variable
Maximum bit rate : 32.5 Mbps
Width : 1 920 pixels
Height : 1 080 pixels
Display aspect ratio : 16:9
Frame rate mode : Constant
Frame rate : 23.976 fps
Color space : YUV
Chroma subsampling : 4:2:0
Bit depth : 8 bits
Scan type : Progressive
Language : English
Default : Yes
Forced : No

Audio #1
ID : 2
Format : AC-3
Format/Info : Audio Coding 3
Mode extension : CM (complete main)
Format settings, Endianness : Big
Codec ID : A_AC3
Duration : 1h 45mn
Bit rate mode : Constant
Bit rate : 384 Kbps
Channel(s) : 6 channels
Channel positions : Front: L C R, Side: L R, LFE
Sampling rate : 48.0 KHz
Bit depth : 16 bits
Compression mode : Lossy
Stream size : 291 MiB (1%)
Title : Dolby Digital | 5.1 | 48 kHz | 16 bit | 384 kbps | Дубляж [iTunes]
Language : Ukrainian
Default : Yes
Forced : Yes

Audio #2
ID : 3
Format :
Format/Info : Digital Theater Systems
Mode : 16
Format settings, Endianness : Big
Codec ID : A_DTS
Duration : 1h 45mn
Bit rate mode : Constant
Bit rate : 1 509 Kbps
Channel(s) : 6 channels
Channel positions : Front: L C R, Side: L R, LFE
Sampling rate : 48.0 KHz
Bit depth : 24 bits
Compression mode : Lossy
Stream size : 1.11 GiB (4%)
Title : | 5.1 | 48 kHz | 24 bit | 1509 kbps | Дубляж
Language : Ukrainian
Default : No
Forced : No

Audio #3
ID : 4
Format :
Format/Info : Digital Theater Systems
Mode : 16
Format settings, Endianness : Big
Codec ID : A_DTS
Duration : 1h 45mn
Bit rate mode : Constant
Bit rate : 1 509 Kbps
Channel(s) : 6 channels
Channel positions : Front: L C R, Side: L R, LFE
Sampling rate : 48.0 KHz
Bit depth : 24 bits
Compression mode : Lossy
Delay relative to video : 11ms
Stream size : 1.11 GiB (4%)
Title : | 5.1 | 48 kHz | 24 bit | 1536 kbps | Original
Language : English
Default : No
Forced : No

Audio #4
ID : 5
Format :
Format/Info : Digital Theater Systems
Format profile : MA / Core
Mode : 16
Format settings, Endianness : Big
Codec ID : A_DTS
Duration : 1h 45mn
Bit rate mode : Variable
Bit rate : Unknown / 1 509 Kbps
Channel(s) : 8 channels / 6 channels
Channel positions : Front: L C R, Side: L R, Back: L R, LFE / Front: L C R, Side: L R, LFE
Sampling rate : 48.0 KHz
Bit depth : 24 bits
Compression mode : Lossless / Lossy
Title : -HD Ma | 7.1 | 48 kHz | 24 bit | 4917 kbps | Original
Language : English
Default : No
Forced : No

Audio #5
ID : 6
Format : AC-3
Format/Info : Audio Coding 3
Format profile : Dolby Digital
Mode extension : CM (complete main)
Format settings, Endianness : Big
Codec ID : A_AC3
Duration : 1h 45mn
Bit rate mode : Constant
Bit rate : 320 Kbps
Channel(s) : 2 channels
Channel positions : Front: L R
Sampling rate : 48.0 KHz
Bit depth : 16 bits
Compression mode : Lossy
Stream size : 242 MiB (1%)
Title : Dolby Digital | 2.0 | 48 kHz | 16 bit | 320 kbps | Descriptive
Language : English
Default : No
Forced : No

Text #1
ID : 7
Format : UTF-8
Codec ID : S_TEXT/UTF8
Codec ID/Info : UTF-8 Plain Text
Title : Full [iTunes]
Language : Ukrainian
Default : No
Forced : No

Text #2
ID : 8
Format : UTF-8
Codec ID : S_TEXT/UTF8
Codec ID/Info : UTF-8 Plain Text
Title : Full [iTunes]
Language : English
Default : No
Forced : No

Menu
00:00:00.000 : en:Once Upon a Time
00:06:35.436 : en:The New Family Arrives
00:13:58.587 : en:Move to the Attic
00:17:56.116 : en:Life With a New Family
00:22:05.574 : en:We'll Call Her Cinderalla!
00:26:36.761 : en:The Stag Hunt
00:31:17.876 : en:A Royal Portrait
00:34:37.700 : en:An Invitation for All
00:38:39.400 : en:The Day of the Ball
00:42:54.697 : en:Fairy Godmother
00:52:52.752 : en:The First Dance
01:03:13.956 : en:The Secret Garden
01:10:54.667 : en:The Race Home
01:16:46.351 : en:The King's Wish
01:20:41.753 : en:The Show Is Found
01:25:36.089 : en:Searching the Kingdom
01:28:27.176 : en:The Show Fits
01:39:11.528 : en:End Credits
Скріншоти





Джерело:


Золотий реліз (завантажене не впливає на рейтинг)
 Трекер:    Зареєстрований   

Завантажити / скачати фільм українською



відео для новачків



 Зареєстрований:   2015-08-26 19:00
 Розмір:   28.73 GB 
 Оцінка фільму:   9.7/10 (Голосів: 7)
   
Інші релізи
   Попелюшка / Cinderella (2015) Ukr/Eng | Sub Ukr/Eng Gelios  9 / 0   1.45 GB   2015-07-31 16:18 
   Попелюшка / Cinderella (2015) AVC patriot2305  2 / 0   1.66 GB   2015-07-31 15:54 
   Попелюшка / Cinderella (2015) 1080p Ukr/Eng | Sub Ukr/Eng 11FrYkT  7 / 0   14.37 GB   2015-07-31 15:08 
   Попелюшка / Cinderella (2015) 720p Ukr/Eng | Sub Ukr/Eng 11FrYkT  3 / 0   5.49 GB   2015-07-31 15:07 
   Попелюшка / Cinderella (2015) 720p-mini Drool  3 / 0   2.21 GB   2015-07-20 07:01 
Alex60 
Забанено
Забанено


З нами з: 06.12.14
Востаннє: 24.07.16
Повідомлень: 40

2015-08-26 18:59  
Торрент оновлено.
bot 
робот


З нами з: 30.09.07
Востаннє: 26.05.05
Повідомлень: 16004

2016-08-28 10:14  
Тему перенесено з Мультфільми в HD до форуму Фільми в HD

Причина перенесення: Це фільм. Має бути в "Фільми в HD".
leroykendall

Ваш часовий пояс: GMT + 2 Години

Нова тема   Відповісти