Завантажити та скачати торренти українською


Палкі втікачки / Hot Pursuit (2015) Remux 1080p Ukr/Eng | Sub Ukr/Eng

Нові коментарі

Нова тема   Відповісти
Автор Повідомлення
Alex60 
Забанено
Забанено


З нами з: 06.12.14
Востаннє: 24.07.16
Повідомлень: 40

2015-08-26 00:15  
Палкі втікачки / Hot Pursuit (2015) Remux 1080p Ukr/Eng | Sub Ukr/Eng

Палкі втікачки / Hot Pursuit (2015) Remux 1080p Ukr/Eng | Sub Ukr/Eng


Жанр: кримінальний, екшн, комедія
Країна: США



Кінокомпанія: Metro-Goldwyn-Mayer (MGM), New Line Cinema, Pacific Standard
Режисер: Енн Флетчер
Актори: Різ Візерспун, Софія Верґара, Метью Дел Неґро, Майкл Мослі та інші

Сюжет:
Усі знають, що програма захисту свідків справа серйозна. Аби як захищати не будуть. Тому, погодившись давати свідчення, вдова наркоторговця була впевнена, що охоронятимуть її надійно. Чим керувалися очільники поліції зрозуміти складно, але для виконання відповідального доручення обрали невдаху. Перша ж небезпека змушує дівчат втікати чимдалі. А дорогою стає зрозуміло, що ховатися їм доведеться не лише від наркоторговців, але і від продажних поліцейських.


Тривалість: 01:27:31
Якість: BD-Remux
Відео:
кодек:
розмір кадру: 1 920 х 1 080
бітрейт: 23854 кб/с

Аудіо # 1:
мова: українська [iTunes]
переклад: професійний дубльований
кодек: 2.0
бітрейт: 192 кб/с

Аудіо # 2:
мова: англійська
переклад: оригінал
кодек: -HD 5.1
бітрейт: 2262 кб/с

Субтитри:
мова: українська [Forced, Full] iTunes
тип: програмні (м'які)
формат: *.srt

Субтитри:
мова: англійська [SDH]
тип: програмні (м'які)
формат: *.srt
MediaInfo
General
Unique ID : 246860683830048114044488675523497597364 (0xB9B7A36827867E32A82C89C1B4F099B4)
Complete name : E:\Hot Pursuit [2015] Remux 1080p UkrEng.mkv
Format : Matroska
Format version : Version 4 / Version 2
File size : 16.5 GiB
Duration : 1h 27mn
Overall bit rate mode : Variable
Overall bit rate : 27.0 Mbps
Encoded date : UTC 2015-08-25 20:59:14
Writing application : mkvmerge v6.8.0 ('Theme for Great Cities') 64bit built on Mar 2 2014 21:34:26
Writing library : libebml v1.3.0 + libmatroska v1.4.1
Attachment : Yes

Video
ID : 1
Format : AVC
Format/Info : Advanced Video Codec
Format profile : [email protected]
Format settings, CABAC : Yes
Format settings, ReFrames : 2 frames
Codec ID : V_MPEG4/ISO/AVC
Duration : 1h 27mn
Bit rate mode : Variable
Width : 1'920 pixels
Height : 1'080 pixels
Display aspect ratio : 16:9
Frame rate mode : Constant
Frame rate : 23.976 fps
Color space : YUV
Chroma subsampling : 4:2:0
Bit depth : 8 bits
Scan type : Progressive
Language : English
Default : Yes
Forced : No

Audio #1
ID : 2
Format : AC-3
Format/Info : Audio Coding 3
Mode extension : CM (complete main)
Format settings, Endianness : Big
Codec ID : A_AC3
Duration : 1h 27mn
Bit rate mode : Constant
Bit rate : 192 Kbps
Channel(s) : 2 channels
Channel positions : Front: L R
Sampling rate : 48.0 KHz
Bit depth : 16 bits
Compression mode : Lossy
Stream size : 120 MiB (1%)
Title : Dolby Digital | 2.0 | 48 kHz | 16 bit | 192 kbps | Дубляж [iTunes]
Language : Ukrainian
Default : Yes
Forced : Yes

Audio #2
ID : 3
Format :
Format/Info : Digital Theater Systems
Format profile : MA / Core
Mode : 16
Format settings, Endianness : Big
Codec ID : A_DTS
Duration : 1h 27mn
Bit rate mode : Variable
Bit rate : Unknown / 1 509 Kbps
Channel(s) : 6 channels
Channel positions : Front: L C R, Side: L R, LFE
Sampling rate : 48.0 KHz
Bit depth : 16 bits
Compression mode : Lossless / Lossy
Title : -HD Ma | 5.1 | 48 kHz | 16 bit | 2262 kbps | Original
Language : English
Default : No
Forced : No

Audio #3
ID : 4
Format : AC-3
Format/Info : Audio Coding 3
Mode extension : CM (complete main)
Format settings, Endianness : Big
Codec ID : A_AC3
Duration : 1h 27mn
Bit rate mode : Constant
Bit rate : 640 Kbps
Channel(s) : 6 channels
Channel positions : Front: L C R, Side: L R, LFE
Sampling rate : 48.0 KHz
Bit depth : 16 bits
Compression mode : Lossy
Stream size : 401 MiB (2%)
Title : Dolby Digital | 5.1 | 48 kHz | 16 bit | 448 kbps | Descriptive
Language : English
Default : No
Forced : No

Text #1
ID : 5
Format : UTF-8
Codec ID : S_TEXT/UTF8
Codec ID/Info : UTF-8 Plain Text
Title : Forced [iTunes]
Language : Ukrainian
Default : No
Forced : No

Text #2
ID : 6
Format : UTF-8
Codec ID : S_TEXT/UTF8
Codec ID/Info : UTF-8 Plain Text
Title : Full [iTunes]
Language : Ukrainian
Default : No
Forced : No

Text #3
ID : 7
Format : UTF-8
Codec ID : S_TEXT/UTF8
Codec ID/Info : UTF-8 Plain Text
Title : SDH
Language : English
Default : No
Forced : No

Menu
00:00:00.000 : en:Chapter 1
00:10:39.347 : en:Chapter 2
00:19:56.778 : en:Chapter 3
00:29:43.698 : en:Chapter 4
00:40:24.672 : en:Chapter 5
00:50:18.557 : en:Chapter 6
00:59:32.235 : en:Chapter 7
01:10:17.713 : en:Chapter 8
01:22:43.917 : en:Chapter 9
01:27:31.037 : en:Chapter 10
Скріншоти




Джерело:


Золотий реліз (завантажене не впливає на рейтинг)
 Трекер:    Зареєстрований   

Завантажити / скачати фільм українською



відео для новачків



 Зареєстрований:   2015-08-26 00:15
 Розмір:   16.48 GB 
 Оцінка фільму:   9/10 (Голосів: 7)
   
Інші релізи
   Палкі втікачки / Hot Pursuit (2015) patriot2305  9 / 0   1.45 GB   2015-11-29 15:25 
   Палкі втікачки / Hot Pursuit (2015) 720p Ukr/Eng | Sub Ukr/Eng 11FrYkT  3 / 0   3.67 GB   2015-11-29 15:25 
   Палкі втікачки / Hot Pursuit (2015) 1080p Ukr/Eng | Sub Ukr/Eng 11FrYkT  0 / 0   8.18 GB   2015-11-29 15:25 
   Палкі втікачки / Hot Pursuit (2015) AVC AngryBirdsUA  4 / 0   1.42 GB   2015-11-29 15:24 
xaxel3000 
Новенький


З нами з: 22.12.12
Востаннє: 21.10.16
Повідомлень: 1

2016-01-30 17:29  
Файл битый. В самом начале. На телеке не смог запустить. В одном месте прерывается и все тут.
igor911 
Відео Гуртом
Відео Гуртом


З нами з: 18.01.08
Востаннє: 05.12.16
Повідомлень: 5136

2016-01-30 20:22  
xaxel3000, по перше тут спілкуються лише українською, не порушуй правил надалі. По друге, 65 інших користувачів за півроку релізу не скаржились на битий файл. Проблема в тебе. І по третє, прибери рекламу з підпису.
bot 
робот


З нами з: 30.09.07
Востаннє: 26.05.05
Повідомлень: 15989

2016-07-24 22:16  
Тему перенесено з Фільми в HD до форуму Фінальний смітник


Alex60

bot 
робот


З нами з: 30.09.07
Востаннє: 26.05.05
Повідомлень: 15989

2016-07-25 13:42  
Тему перенесено з Фінальний смітник до форуму Фільми в HD


igor911

Ваш часовий пояс: GMT + 2 Години

Нова тема   Відповісти