Завантажити та скачати торренти українською


Дорога додому: Неймовірна подорож / Homeward Bound: The Incredible Journey (1992) 720p Ukr/Eng | Sub Eng

Нові коментарі

Нова тема   Відповісти
Автор Повідомлення
Anonymous 







2015-08-23 20:12  
Дорога додому: Неймовірна подорож / Homeward Bound: The Incredible Journey (1992) 720p Ukr/Eng | Sub Eng



Оригінальні обкладинки та постери




повнорозмірні зображення відкриються по кліку (з натиснутим CTRL чи кліком середньою кнопкою мишки - у іншій вкладці)


Жанр: драма, комедія, пригодницький, сімейний
Країна: США



Кінокомпанія: Touchwood Pacific Partners 1, Walt Disney Pictures
Режисер: Двейн Данем / Duwayne Dunham
Актори: Майкл Джей Фокс / Michael J. Fox (озвучення в оригіналі), Дон Алдер / Don Alder, Ед Бернард / Ed Bernard, Кевін Чевалія / Kevin Chevalia, Вероніка Лорен / Veronica Lauren, Вуді Еней / Woody Eney, Кім Грайст / Kim Greist, Річ Гокінс / Rich Hawkins, Роберт Хейс / Robert Hays та інші

Сюжет:
Господарі двох собак та чарівної кішечки Сесі змушені на деякий час виїхати, тож віддають
своїх вихованців на ранчо друга. Через деякий час тварини, які опинилися за сотні миль від улюбленого будинку,
починають турбуватися, чи бува не трапились у господарів неприємності. Поміркувавши, весела трійця вирішує самостійно
дістатися до дому і пускається в неймовірно небезпечну подорож по горах і пустелях...


Рейтинг MPAA: G - нема вікових обмежень
Вікова категорія: 6+

Тривалість: 01:24:25
Якість: 720p
Відео:
кодек:
розмір кадру: 1280 х 688
бітрейт: 3945 кбіт/с

Аудіо # 1:
мова: українська
переклад: багатоголосий закадровий
кодек: 2.0
бітрейт: 192 кбіт/с

Аудіо # 2:
мова: англійська
переклад: оригінал
кодек: 5.1
бітрейт: 384 кбіт/с

Субтитри:
мова: англійська
тип: програмні (м'які)
формат: *.srt

Збережено оригінальні розділи
MediaInfo
Код:
General
Unique ID                   : 244148557122124898209414299624235077790 (0xB7AD4D3C79E92412A976DFE88F00109E)
Complete name               : Homeward Bound. The Incredible Journey (1993) [Ukr,Eng sub.Eng] 720p [Hurtom & HDClub].mkv
Format                      : Matroska
Format version              : Version 4 / Version 2
File size                   : 2.72 GiB
Duration                    : 1h 24mn
Overall bit rate            : 4 613 Kbps
Movie name                  : Дорога додому: Неймовірна подорож / Homeward Bound. The Incredible Journey (1993) [Ukr,Eng sub.Eng] 720p [Hurtom & HDClub]
Encoded date                : UTC 2015-08-23 17:05:10
Writing application         : mkvmerge v8.3.0 ('Over the Horizon') 64bit
Writing library             : libebml v1.3.1 + libmatroska v1.4.2
Attachements                : cover.jpg
DURATION                    : 01:18:53.810000000
NUMBER_OF_FRAMES            : 1088
NUMBER_OF_BYTES             : 42056
_STATISTICS_WRITING_APP     : mkvmerge v8.3.0 ('Over the Horizon') 64bit
_STATISTICS_WRITING_DATE_UT : 2015-08-23 17:05:10
_STATISTICS_TAGS            : BPS DURATION NUMBER_OF_FRAMES NUMBER_OF_BYTES

Video
ID                          : 1
Format                      : AVC
Format/Info                 : Advanced Video Codec
Format profile              : [email protected]
Format settings, CABAC      : No
Format settings, ReFrames   : 2 frames
Format settings, GOP        : N=1
Codec ID                    : V_MPEG4/ISO/AVC
Duration                    : 1h 24mn
Bit rate                    : 3 945 Kbps
Width                       : 1 280 pixels
Height                      : 688 pixels
Display aspect ratio        : 1.85:1
Frame rate mode             : Constant
Frame rate                  : 23.976 fps
Color space                 : YUV
Chroma subsampling          : 4:2:0
Bit depth                   : 8 bits
Scan type                   : Progressive
Bits/(Pixel*Frame)          : 0.187
Stream size                 : 2.33 GiB (86%)
Title                       : Дорога додому: Неймовірна подорож / Homeward Bound: The Incredible Journey (1993) 720p [HDClub]
Language                    : English
Default                     : Yes
Forced                      : No
Color range                 : Limited
Color primaries             : BT.709
Transfer characteristics    : BT.709
Matrix coefficients         : BT.709

Audio #1
ID                          : 2
Format                      : AC-3
Format/Info                 : Audio Coding 3
Mode extension              : CM (complete main)
Format settings, Endianness : Big
Codec ID                    : A_AC3
Duration                    : 1h 24mn
Bit rate mode               : Constant
Bit rate                    : 192 Kbps
Channel(s)                  : 2 channels
Channel positions           : Front: L R
Sampling rate               : 48.0 KHz
Compression mode            : Lossy
Stream size                 : 116 MiB (4%)
Title                       : MVO [K1] 2.0 192 kbps [Hurtom-igrik09]
Language                    : Ukrainian
Default                     : Yes
Forced                      : No

Audio #2
ID                          : 3
Format                      : AC-3
Format/Info                 : Audio Coding 3
Mode extension              : CM (complete main)
Format settings, Endianness : Big
Codec ID                    : A_AC3
Duration                    : 1h 24mn
Bit rate mode               : Constant
Bit rate                    : 384 Kbps
Channel(s)                  : 6 channels
Channel positions           : Front: L C R, Side: L R, LFE
Sampling rate               : 48.0 KHz
Compression mode            : Lossy
Stream size                 : 232 MiB (8%)
Title                       : Original 5.1 384 kbps
Language                    : English
Default                     : No
Forced                      : No

Text
ID                          : 4
Format                      : UTF-8
Codec ID                    : S_TEXT/UTF8
Codec ID/Info               : UTF-8 Plain Text
Language                    : English
Default                     : No
Forced                      : No

Menu
00:00:00.000                : en:1
00:00:17.000                : en:2
00:08:11.000                : en:3
00:12:44.000                : en:4
00:19:36.000                : en:5
00:30:17.000                : en:6
00:31:53.000                : en:7
00:38:36.000                : en:8
00:40:59.000                : en:9
00:47:30.000                : en:10
00:49:25.000                : en:11
00:51:14.000                : en:12
00:56:55.000                : en:13
01:02:32.000                : en:14
01:09:39.000                : en:15
01:14:19.000                : en:16
01:19:20.000                : en:17




Джерела та подяки: &
відео, оригінальні звук та субтитри - sergey_n (HDClub); українська доріжка та постер - igrik09; фільмографії акторів - Віктор (всі - Гуртом).

ЗАЛИШАЙТЕСЬ ЯКОМОГА ДОВШЕ НА РОЗДАЧІ!

СКАЧАВ САМ - ДАЙ СКАЧАТИ ІНШИМ


Срібний реліз (на рейтинг впливає 50% завантаженого)
 Трекер:    Зареєстрований   

Завантажити / скачати фільм українською



відео для новачків



 Зареєстрований:   2015-08-23 20:12
 Розмір:   2.72 GB 
 Оцінка фільму:   3.8/10 (Голосів: 15)
   
Ваш часовий пояс: GMT + 2 Години

Нова тема   Відповісти