Завантажити та скачати торренти українською


Як кохатися по-англійськи / How to Make Love Like an Englishman (2014) 720p Ukr/Eng

Нові коментарі

Нова тема   Відповісти
Автор Повідомлення
Alex60 
Забанено
Забанено


З нами з: 06.12.14
Востаннє: 24.07.16
Повідомлень: 40

2015-08-23 18:21  
Як кохатися по-англійськи / How to Make Love Like an Englishman (2014) 720p Ukr/Eng

Як кохатися по-англійськи / How to Make Love Like an Englishman (2014) 720p Ukr/Eng


Жанр: мелодрама, комедія
Країна: США



Кінокомпанія: PalmStar Media, Southpaw Entertainment (I), Irish DreamTime
Режисер: Том Вон
Актори: Пірс Броснан, Сальма Хайек, Джессіка Альба, Малкольм МакДауелл, Дункан Джойнер, Бен МакКензі

Сюжет:
Професор Річард Хейг (Пірс Броснан) викладає в Кембриджському університеті. Він дотримується того принципу, що життя людині дане для того, щоб встигнути отримати від нього максимальне задоволення. Можливо, тому він регулярно заводить романи з юними студентками. Якось, сидячи у барі, Річард був приголомшений красою і чарівністю дівчини на ім'я Олівія (Сальма Хайек). Не замислюючись, професор ладен був пов'язати з нею життя. Його не зупинило б навіть те, що Олівія – це сестра закоханої в нього студентки Кейт. От тільки Кейт (Джесіка Альба) зізналася, що чекає від Річарда дитину.


Тривалість: 01:39:20
Якість: 720p
Відео:
кодек:
розмір кадру: 1280x534
бітрейт: 3937 кб/с

Аудіо # 1:
мова: українська
переклад: професійний дубльований
кодек: 2.0
бітрейт: 192 кб/с

Аудіо # 2:
мова: англійська
переклад: оригінал
кодек: 5.1
бітрейт: 384 кб/с
MediaInfo
General
Unique ID : 178119564422805437178593325655716784810 (0x8600948D4016AD45A8D074B670C7EAAA)
Complete name : S:\How to Make Love Like an Englishman (2014) 720p UkrEng.mkv
Format : Matroska
Format version : Version 4 / Version 2
File size : 3.20 GiB
Duration : 1h 39mn
Overall bit rate : 4 605 Kbps
Encoded date : UTC 2015-08-23 15:54:55
Writing application : mkvmerge v6.8.0 ('Theme for Great Cities') 64bit built on Mar 2 2014 21:34:26
Writing library : libebml v1.3.0 + libmatroska v1.4.1
Attachements : cover.jpg

Video
ID : 1
Format : AVC
Format/Info : Advanced Video Codec
Format profile : [email protected]
Format settings, CABAC : No
Format settings, ReFrames : 2 frames
Codec ID : V_MPEG4/ISO/AVC
Duration : 1h 39mn
Bit rate : 3 937 Kbps
Width : 1 280 pixels
Height : 534 pixels
Display aspect ratio : 2.40:1
Frame rate mode : Constant
Frame rate : 24.000 fps
Color space : YUV
Chroma subsampling : 4:2:0
Bit depth : 8 bits
Scan type : Progressive
Bits/(Pixel*Frame) : 0.240
Stream size : 2.73 GiB (86%)
Language : English
Default : Yes
Forced : No
Color range : Limited
Color primaries : BT.709
Transfer characteristics : BT.709
Matrix coefficients : BT.709

Audio #1
ID : 2
Format : AC-3
Format/Info : Audio Coding 3
Mode extension : CM (complete main)
Format settings, Endianness : Big
Codec ID : A_AC3
Duration : 1h 39mn
Bit rate mode : Constant
Bit rate : 192 Kbps
Channel(s) : 2 channels
Channel positions : Front: L R
Sampling rate : 48.0 KHz
Compression mode : Lossy
Stream size : 136 MiB (4%)
Title : Dolby Digital | 2.0 | 48 kHz | 16 bit | 192 kbps | Дубляж
Language : Ukrainian
Default : No
Forced : No

Audio #2
ID : 3
Format : AC-3
Format/Info : Audio Coding 3
Mode extension : CM (complete main)
Format settings, Endianness : Big
Codec ID : A_AC3
Duration : 1h 39mn
Bit rate mode : Constant
Bit rate : 384 Kbps
Channel(s) : 6 channels
Channel positions : Front: L C R, Side: L R, LFE
Sampling rate : 48.0 KHz
Compression mode : Lossy
Stream size : 273 MiB (8%)
Title : Dolby Digital | 5.1 | 48 kHz | 16 bit | 384 kbps | Original
Language : English
Default : No
Forced : No

Menu
00:00:00.000 : en:Chapitre 1
00:10:36.000 : en:Chapitre 2
00:20:09.000 : en:Chapitre 3
00:30:29.000 : en:Chapitre 4
00:39:22.000 : en:Chapitre 5
00:50:45.000 : en:Chapitre 6
00:59:58.000 : en:Chapitre 7
01:10:50.000 : en:Chapitre 8
01:21:01.000 : en:Chapitre 9
01:29:57.000 : en:Chapitre 10
Скріншоти




Джерело:


 Трекер:    Зареєстрований   

Завантажити / скачати фільм українською



відео для новачків



 Зареєстрований:   2015-08-23 18:21
 Розмір:   3.2 GB 
 Оцінка фільму:   8.4/10 (Голосів: 14)
   
olthik 
Частий відвідувач


З нами з: 02.03.16
Востаннє: 03.12.16
Повідомлень: 33

2016-04-07 08:31  
Броснан вже подався, але все рівно виглядає свіжо. Гарний живий фільм.
bot 
робот


З нами з: 30.09.07
Востаннє: 26.05.05
Повідомлень: 15973

2016-07-24 22:16  
Тему перенесено з Фільми в HD до форуму Фінальний смітник


Alex60

bot 
робот


З нами з: 30.09.07
Востаннє: 26.05.05
Повідомлень: 15973

2016-07-25 13:42  
Тему перенесено з Фінальний смітник до форуму Фільми в HD


igor911

Ваш часовий пояс: GMT + 2 Години

Нова тема   Відповісти