Завантажити та скачати торренти українською


Хочу бути тобою / In Her Shoes (2005) Ukr/Eng | Sub Eng

Нові коментарі

Нова тема   Відповісти
Автор Повідомлення
Anonymous 







2015-08-23 00:36  
Хочу бути тобою / In Her Shoes (2005) Ukr/Eng | Sub Eng



Оригінальні обкладинки та постери




повнорозмірні зображення відкриються по кліку (з натиснутим CTRL чи кліком середньою кнопкою мишки - у іншій вкладці)


Жанр: драма, мелодрама, комедія
Країна: США, Німеччина, Велика Британія



Кінокомпанія: Fox 2000 Pictures, Scott Free Productions, Deuce Three Productions
Режисер: Кертіс Хенсон / Curtis Hanson
Актори: Камерон Діаз / Cameron Diaz, Тоні Колетт / Toni Collette, Ширлі МакЛейн / Shirley MacLaine, Ерік Белфор / Eric Balfour, Брук Сміт / Brooke Smith, Річард Бургі / Richard Burgi, Енсон Маунт / Anson Mount та інші

Сюжет:
Безвідповідальна і легковажна Меггі Феллер переїжджає до своєї старшої сестри Роуз, яка працює адвокатом і скрізь дотримується строгих правил. Між сестрами немає нічого спільного, окрім хіба що розміру взуття. Терпець Роуз уривається після того, як Меггі затягає до себе в ліжко хлопця Роуз. У відповідь та виганяє її з квартири. Тут й дружбі сестер прийшов би кінець, аж раптом на допомогу несподівано приходить бабуся, яку сестри не бачили після похорону матері…


Рейтинг MPAA: PG-13 - дітям до 13 років перегляд не бажаний
Вікова категорія: 14+

Тривалість: 02:10:23
Якість: [HQClub]
Відео:
кодек: build 65
розмір кадру: 720x304
бітрейт: 1941 кбіт/с

Аудіо # 1:
мова: українська
переклад: професійний дубльований
кодек: 5.1
бітрейт: 384 кбіт/с
Інформація про дубляж
Ролі дублювали: Камерон Діаз — Юлія Перенчук, Тоні Коллет — Людмила Ардельян, Марк Форстейн — Андрій Твердак, Олег Лепенець, Олесь Гімбаржевський, Кен Говард — Анатолій Зіновенко, Ширлі МакЛейн — Наталя Ярошенко, Річард Берджі — Михайло Жонін, Ерік Бальфаур — Дмитро Завадський, а також: Лідія Муращенко, Ніна Касторф, Олександр Завальський, Олена Яблучна та інші.
Аудіо # 2:
мова: англійська
переклад: оригінал
кодек: 5.1
бітрейт: 448 кбіт/с

Субтитри:
мова: англійська (завантажити)
тип: програмні (м'які)
формат: *.srt
MediaInfo
Код:
General
Complete name               : In Her Shoes (2005) [Ukr,Eng] [Hurtom & HQClub].avi
Format                      : AVI
Format/Info                 : Audio Video Interleave
Format profile              : OpenDML
File size                   : 2.54 GiB
Duration                    : 2h 10mn
Overall bit rate            : 2 785 Kbps
Movie name                  : Хочу бути тобою / In Her Shoes / Подальше от тебя (2005)
Director                    : igor911 & sociolog_melvas
Genre                       : драма, мелодрама, комедія
Writing application         : VirtualDubModRus 1.5.10.2 (build 2540/release)
Writing library             : VirtualDubMod build 2540/release
Copyright                   : Hurtom & HQClub
Comment                     : 22.08.2015

Video
ID                          : 0
Format                      : MPEG-4 Visual
Format profile              : Advanced [email protected]
Format settings, BVOP       : 1
Format settings, QPel       : No
Format settings, GMC        : No warppoints
Format settings, Matrix     : Custom
Codec ID                    :
Codec ID/Hint               :
Duration                    : 2h 10mn
Bit rate                    : 1 936 Kbps
Width                       : 720 pixels
Height                      : 304 pixels
Display aspect ratio        : 2.35:1
Frame rate                  : 23.976 fps
Color space                 : YUV
Chroma subsampling          : 4:2:0
Bit depth                   : 8 bits
Scan type                   : Progressive
Compression mode            : Lossy
Bits/(Pixel*Frame)          : 0.369
Stream size                 : 1.76 GiB (70%)
Writing library             : 65

Audio #1
ID                          : 1
Format                      : AC-3
Format/Info                 : Audio Coding 3
Mode extension              : CM (complete main)
Format settings, Endianness : Big
Codec ID                    : 2000
Duration                    : 2h 10mn
Bit rate mode               : Constant
Bit rate                    : 384 Kbps
Channel(s)                  : 6 channels
Channel positions           : Front: L C R, Side: L R, LFE
Sampling rate               : 48.0 KHz
Compression mode            : Lossy
Stream size                 : 358 MiB (14%)
Alignment                   : Split accross interleaves
Interleave, duration        : 42 ms (1.00 video frame)
Interleave, preload duratio : 500 ms
Title                       : Ukr Dub [1+1]

Audio #2
ID                          : 2
Format                      : AC-3
Format/Info                 : Audio Coding 3
Mode extension              : CM (complete main)
Format settings, Endianness : Big
Codec ID                    : 2000
Duration                    : 2h 10mn
Bit rate mode               : Constant
Bit rate                    : 448 Kbps
Channel(s)                  : 6 channels
Channel positions           : Front: L C R, Side: L R, LFE
Sampling rate               : 48.0 KHz
Compression mode            : Lossy
Stream size                 : 418 MiB (16%)
Alignment                   : Split accross interleaves
Interleave, duration        : 42 ms (1.00 video frame)
Interleave, preload duratio : 500 ms
Title                       : Eng Original




Джерела та подяки: &
ріп відео, оригінальні звук та субтитри - sociolog_melvas (HQClub); українська доріжка - tarick - запис з ТБ та зведення, messafan (HDClub) - зведення під BluRay; українізований постер - Konfucius; фільмографії акторів та інформація про озвучення - Віктор, Neo777 (всі - Гуртом).






ЗАЛИШАЙТЕСЬ ЯКОМОГА ДОВШЕ НА РОЗДАЧІ!

СКАЧАВ САМ - ДАЙ СКАЧАТИ ІНШИМ


 Трекер:    Зареєстрований   

Завантажити / скачати фільм українською



відео для новачків



 Зареєстрований:   2015-08-23 00:36
 Розмір:   2.54 GB 
 Оцінка фільму:   5.1/10 (Голосів: 20)
   
Інші релізи
   Хочу бути тобою / In Her Shoes (2005) 720p Ukr/Eng | Sub Eng igor911  4 / 0   7.01 GB   2015-08-23 00:04 
   Хочу бути тобою / In Her Shoes (2005) Ukr/Eng Snooppy  0 / 0   2.15 GB   2010-05-18 17:17 
Ваш часовий пояс: GMT + 2 Години

Нова тема   Відповісти