Завантажити та скачати торренти українською


Хочу бути тобою / In Her Shoes (2005) 720p Ukr/Eng | Sub Eng

Нові коментарі

Нова тема   Відповісти
Автор Повідомлення
Anonymous 







2015-08-23 00:03  
Хочу бути тобою / In Her Shoes (2005) 720p Ukr/Eng | Sub Eng



Оригінальні обкладинки та постери




повнорозмірні зображення відкриються по кліку (з натиснутим CTRL чи кліком середньою кнопкою мишки - у іншій вкладці)


Жанр: драма, мелодрама, комедія
Країна: США, Німеччина, Велика Британія



Кінокомпанія: Fox 2000 Pictures, Scott Free Productions, Deuce Three Productions
Режисер: Кертіс Хенсон / Curtis Hanson
Актори: Камерон Діаз / Cameron Diaz, Тоні Колетт / Toni Collette, Ширлі МакЛейн / Shirley MacLaine, Ерік Белфор / Eric Balfour, Брук Сміт / Brooke Smith, Річард Бургі / Richard Burgi, Енсон Маунт / Anson Mount та інші

Сюжет:
Безвідповідальна і легковажна Меггі Феллер переїжджає до своєї старшої сестри Роуз, яка працює адвокатом і скрізь дотримується строгих правил. Між сестрами немає нічого спільного, окрім хіба що розміру взуття. Терпець Роуз уривається після того, як Меггі затягає до себе в ліжко хлопця Роуз. У відповідь та виганяє її з квартири. Тут й дружбі сестер прийшов би кінець, аж раптом на допомогу несподівано приходить бабуся, яку сестри не бачили після похорону матері…


Рейтинг MPAA: PG-13 - дітям до 13 років перегляд не бажаний
Вікова категорія: 14+

Тривалість: 02:10:23
Якість: 720p [iNK]
Відео:
кодек:
розмір кадру: 1280 х 544
бітрейт: 5800 кбіт/с

Аудіо # 1:
мова: українська
переклад: професійний дубльований
кодек: 5.1
бітрейт: 384 кбіт/с
Інформація про дубляж
Ролі дублювали: Камерон Діаз — Юлія Перенчук, Тоні Коллет — Людмила Ардельян, Марк Форстейн — Андрій Твердак, Олег Лепенець, Олесь Гімбаржевський, Кен Говард — Анатолій Зіновенко, Ширлі МакЛейн — Наталя Ярошенко, Річард Берджі — Михайло Жонін, Ерік Бальфаур — Дмитро Завадський, а також: Лідія Муращенко, Ніна Касторф, Олександр Завальський, Олена Яблучна та інші.
Аудіо # 2:
мова: англійська
переклад: оригінал
кодек: 5.1
бітрейт: 1509 кбіт/с

Субтитри:
мова: англійська
тип: програмні (м'які)
формат: *.srt

Збережено оригінальні розділи, як на Blu-ray.
MediaInfo та log
Код:
General
Unique ID                   : 240159767041484534828678973995955473915 (0xB4AD16B39DBF9ABEB99D112195D74DFB)
Complete name               : In Her Shoes (2005) [Ukr,Eng sub.Eng] 720p [Hurtom & HDClub].mkv
Format                      : Matroska
Format version              : Version 4 / Version 2
File size                   : 7.01 GiB
Duration                    : 2h 10mn
Overall bit rate            : 7 694 Kbps
Movie name                  : Хочу бути тобою / In Her Shoes (2005) [Ukr,Eng sub.Eng] 720p [Hurtom & HDClub]
Encoded date                : UTC 2015-08-21 21:00:06
Writing application         : mkvmerge v8.3.0 ('Over the Horizon') 64bit
Writing library             : libebml v1.3.1 + libmatroska v1.4.2
Attachements                : cover.jpg / logfile.log
DURATION                    : 02:04:45.060000000
NUMBER_OF_FRAMES            : 1727
NUMBER_OF_BYTES             : 57020
_STATISTICS_WRITING_APP     : mkvmerge v8.3.0 ('Over the Horizon') 64bit
_STATISTICS_WRITING_DATE_UT : 2015-08-21 21:00:06
_STATISTICS_TAGS            : BPS DURATION NUMBER_OF_FRAMES NUMBER_OF_BYTES

Video
ID                          : 1
Format                      : AVC
Format/Info                 : Advanced Video Codec
Format profile              : [email protected]
Format settings, CABAC      : Yes
Format settings, ReFrames   : 12 frames
Codec ID                    : V_MPEG4/ISO/AVC
Duration                    : 2h 10mn
Bit rate                    : 5 800 Kbps
Width                       : 1 280 pixels
Height                      : 544 pixels
Display aspect ratio        : 2.35:1
Frame rate mode             : Constant
Frame rate                  : 23.976 fps
Color space                 : YUV
Chroma subsampling          : 4:2:0
Bit depth                   : 8 bits
Scan type                   : Progressive
Bits/(Pixel*Frame)          : 0.347
Stream size                 : 5.14 GiB (73%)
Title                       : Хочу бути тобою / In Her Shoes  / Подальше от тебя (2005) 720p  [iNK]
Writing library             : core 142 r2431+42 c69a006 tMod [[email protected]:2:0 X86_64]
Encoding settings           : cabac=1 / ref=12 / deblock=1:-3:-3 / analyse=0x3:0x113 / me=tesa / subme=10 / psy=1 / fade_compensate=0.00 / psy_rd=1.00:0.00 / mixed_ref=1 / me_range=24 / chroma_me=1 / trellis=2 / 8x8dct=1 / cqm=0 / deadzone=21,11 / fast_pskip=0 / chroma_qp_offset=-4 / threads=12 / lookahead_threads=3 / sliced_threads=0 / nr=0 / decimate=0 / interlaced=0 / bluray_compat=0 / constrained_intra=0 / fgo=0 / bframes=10 / b_pyramid=2 / b_adapt=2 / b_bias=0 / direct=3 / weightb=1 / open_gop=0 / weightp=2 / keyint=250 / keyint_min=23 / scenecut=40 / intra_refresh=0 / rc=2pass / mbtree=0 / bitrate=5800 / ratetol=1.0 / qcomp=0.75 / qpmin=0:0:0 / qpmax=69:69:69 / qpstep=4 / cplxblur=20.0 / qblur=0.5 / ip_ratio=1.30 / pb_ratio=1.20 / aq=4:0.80 / aq-sensitivity=10.00 / aq-factor=1.00:1.00:1.00 / aq2=0 / aq3=0
Language                    : English
Default                     : Yes
Forced                      : No

Audio #1
ID                          : 2
Format                      : AC-3
Format/Info                 : Audio Coding 3
Mode extension              : CM (complete main)
Format settings, Endianness : Big
Codec ID                    : A_AC3
Duration                    : 2h 10mn
Bit rate mode               : Constant
Bit rate                    : 384 Kbps
Channel(s)                  : 6 channels
Channel positions           : Front: L C R, Side: L R, LFE
Sampling rate               : 48.0 KHz
Compression mode            : Lossy
Stream size                 : 358 MiB (5%)
Title                       : Dub [1+1] 5.1 384 kbps [Hurtom-tarick, HDClub-messafan]
Language                    : Ukrainian
Default                     : Yes
Forced                      : No

Audio #2
ID                          : 3
Format                      :
Format/Info                 : Digital Theater Systems
Mode                        : 16
Format settings, Endianness : Big
Codec ID                    : A_DTS
Duration                    : 2h 10mn
Bit rate mode               : Constant
Bit rate                    : 1 509 Kbps
Channel(s)                  : 6 channels
Channel positions           : Front: L C R, Side: L R, LFE
Sampling rate               : 48.0 KHz
Bit depth                   : 24 bits
Compression mode            : Lossy
Stream size                 : 1.37 GiB (20%)
Title                       : Original 5.1 1509 kbps
Language                    : English
Default                     : No
Forced                      : No

Text
ID                          : 4
Format                      : UTF-8
Codec ID                    : S_TEXT/UTF8
Codec ID/Info               : UTF-8 Plain Text
Title                       : Eng SDH
Language                    : English
Default                     : No
Forced                      : No

Menu
00:00:00.000                : en:Main Titles
00:02:20.140                : en:Things Like This
00:08:57.162                : en:Do Not Touch
00:12:06.726                : en:"You Okay, Maggie May?"
00:15:21.671                : en:The World Of Commerce
00:21:31.790                : en:The Elegant Paw
00:25:35.534                : en:Impounded
00:31:31.473                : en:Fat Pig?
00:36:11.002                : en:Walking The Dog
00:41:19.769                : en:On Vacation
00:46:25.157                : en:Lovely Surprise
00:49:21.542                : en:Rumors
00:52:39.031                : en:Take Care Of My Girls
00:59:17.721                : en:Matching Funds
01:02:58.817                : en:Making Up For Lost Time
01:08:28.229                : en:Thick As Thieves
01:13:10.720                : en:Smart Girl
01:19:27.179                : en:No Tiaras
01:24:13.215                : en:A Stab At Sydelle
01:27:29.828                : en:Jackie O!
01:31:16.137                : en:Lopey's Wedding
01:37:02.233                : en:Lost And Found
01:41:42.096                : en:The Best Day
01:51:29.850                : en:Too Many Options
01:52:59.648                : en:"He Talked About Me?"
01:57:36.091                : en:Special Moment
02:03:15.555                : en:I Carry Your Heart
02:06:15.067                : en:End Titles


Код:
[info]: frame I:1404  Avg QP:16.11  size:114459
[info]: frame P:36764 Avg QP:18.52  size: 47554
[info]: frame B:149415 Avg QP:19.12  size: 25173
[info]: consecutive B-frames:  1.7%  1.9%  6.7%  9.8% 12.9% 52.3%  5.5%  2.0%  1.6%  2.3%  3.3%
Оригінал <----------> Ріп







Джерела та подяки: &
ріп відео, оригінальні звук та субтитри - iNK (HDbits), N1NT3NDO (HDClub); українська доріжка - tarick - запис з ТБ та зведення, messafan (HDClub) - зведення під BluRay; українізований постер - Konfucius; фільмографії акторів та інформація про озвучення - Віктор, Neo777 (всі - Гуртом).






ЗАЛИШАЙТЕСЬ ЯКОМОГА ДОВШЕ НА РОЗДАЧІ!

СКАЧАВ САМ - ДАЙ СКАЧАТИ ІНШИМ


 Трекер:    Зареєстрований   

Завантажити / скачати фільм українською



відео для новачків



 Зареєстрований:   2015-08-23 00:04
 Розмір:   7.01 GB 
 Оцінка фільму:   2.8/10 (Голосів: 13)
   
Інші релізи
   Хочу бути тобою / In Her Shoes (2005) Ukr/Eng | Sub Eng igor911  4 / 0   2.54 GB   2015-08-23 00:36 
   Хочу бути тобою / In Her Shoes (2005) Ukr/Eng Snooppy  0 / 0   2.15 GB   2010-05-18 17:17 
Ваш часовий пояс: GMT + 2 Години

Нова тема   Відповісти