Завантажити та скачати торренти українською


Ichthyander Dad's Only Dolphin - At One music fest 2014 (2015) [FLAC] | Art-fusion/Progressive rock

Нові коментарі

Нова тема   Відповісти
Останній раз роздавалося Myfordownloads (2016-10-09)
Автор Повідомлення
kolpavel 
VIP


З нами з: 04.05.14
Востаннє: 11.12.16
Повідомлень: 1062

2015-08-22 20:21  
Ichthyander Dad's Only Dolphin - At One music fest 2014 (2015) [FLAC] | Art-fusion/Progressive rock

Ichthyander Dad's Only Dolphin - At One music fest 2014 (2015) [FLAC] | Art-fusion/Progressive rock


Стиль: Art-fusion Progressive rock
Країна, місто: Україна, Кiровоград
Видавець: Гурт
Виконавці:
Дмитро Дорош - гітара
Олег Ворона - бас
Віктор Сиротін - барабани
Сергій Каденко - клавішнi
Олена Єременко - скрипка

Спеціальні гості:
Jason Offen - вокал (9)
Микола Дорош - віолончель і перкусія
Анатолій Антоненко - клавішнi
Руслан Федосєєв - гітара
Анатолій Дон - гітара
Денис Федченко - флейта
В'ячеслав Burtniak - саксофон
Олена Smotrenko - скрипка
Віта Верещагіна - скрипка

Пісні:
    01 – Through the Gates of the Universe - 11:47
    02 – Biometry - 5:17
    03 – Opus 16 - 4:34
    04 – Castles of Birmingham - 3:17
    05 – Unmeasured Spaces - 7:35
    06 – Countdown- 2:38
    07 – Epiphany - 8:06
    08 – Comeback to Life - 8:16
    09 – Starless (King Crimson cover) - 12:10

Тривалість: 01:04:02
Мова: англійська
Аудіо-кодек: FLAC
Бітрейт: 896 кб/с
Джерело: iнтернет
Додаткова інформація:
Лог:
Exact Audio Copy V1.0 beta 3 from 29. August 2011

Отчёт EAC об извлечении, выполненном 16. июня 2015, 18:56

Ichthyander Dad's Only Dolphin / Ichthyander Dad's Only Dolphin at One music fest 2014

Дисковод: ASUS DRW-24F1ST a Adapter: 0 ID: 0

Режим чтения : Достоверность
Использование точного потока : Да
Отключение кэша аудио : Да
Использование указателей C2 : Нет

Коррекция смещения при чтении : 6
Способность читать области Lead-in и Lead-out : Нет
Заполнение пропущенных сэмплов тишиной : Да
Удаление блоков с тишиной в начале и конце : Нет
При вычислениях CRC использовались нулевые сэмплы : Да
Интерфейс : Встроенный Win32-интерфейс для Win NT/2000

Выходной формат : Пользовательский кодировщик
Выбранный битрейт : 896 kBit/s
Качество : Высокий
Добавление ID3-тега : Нет
Утилита сжатия : C:\Program Files (x86)\FLAC\flac.exe
Дополнительные параметры : -V -8 -T "Date=%year%" -T "Genre=%genre%" %source%

TOC извлечённого CD

Трек | Старт | Длительность | Начальный сектор | Конечный сектор
---------------------------------------------------------------------
1 | 0:00.00 | 11:49.52 | 0 | 53226
2 | 11:49.52 | 5:19.17 | 53227 | 77168
3 | 17:08.69 | 4:36.39 | 77169 | 97907
4 | 21:45.33 | 3:19.67 | 97908 | 112899
5 | 25:05.25 | 7:37.46 | 112900 | 147220
6 | 32:42.71 | 2:40.37 | 147221 | 159257
7 | 35:23.33 | 8:08.55 | 159258 | 195912
8 | 43:32.13 | 8:18.32 | 195913 | 233294
9 | 51:50.45 | 12:10.67 | 233295 | 288111

Характеристики диапазона извлечения и сообщения об ошибках

Выбранный диапазон

Имя файла D:\Новая папка\Ichthyander Dad's Only Dolphin - Ichthyander Dad's Only Dolphin at One music fest 2014.wav

Пиковый уровень 100.0 %
Скорость извлечения 8.3 X
Качество диапазона 100.0 %
CRC теста B51A6047
CRC копии B51A6047
Копирование... OK

Ошибок не произошло

AccurateRip: сводка

Трек 1 отсутствует в базе данных
Трек 2 отсутствует в базе данных
Трек 3 отсутствует в базе данных
Трек 4 отсутствует в базе данных
Трек 5 отсутствует в базе данных
Трек 6 отсутствует в базе данных
Трек 7 отсутствует в базе данных
Трек 8 отсутствует в базе данных
Трек 9 отсутствует в базе данных

Ни одного трека нет в базе AccurateRip

Конец отчёта

---- CUETools DB Plugin V2.1.3

[CTDB TOCID: lEzfmmFXeJmrN7FRcXizgk2BV5s-] disk not present in database, Submit result: lEzfmmFXeJmrN7FRcXizgk2BV5s- has been uploaded

==== Контрольная сумма отчёта 7DB68D8406BB8BBACA8C08E8C94BE2AE3C92740F59480353B1C90FF7470B746B ====
(.CUE):
REM GENRE Art-rock
REM DATE 2015
REM DISCID 590F0109
REM COMMENT "ExactAudioCopy v1.0b3"
PERFORMER "Ichthyander Dad's Only Dolphin"
TITLE "Ichthyander Dad's Only Dolphin at One music fest 2014"
FILE "Ichthyander Dad's Only Dolphin - Ichthyander Dad's Only Dolphin at One music fest 2014.flac" WAVE
TRACK 01 AUDIO
TITLE "Through the Gates of the Universe"
PERFORMER "Ichthyander Dad's Only Dolphin"
INDEX 01 00:00:00
TRACK 02 AUDIO
TITLE "Biometry"
PERFORMER "Ichthyander Dad's Only Dolphin"
INDEX 01 11:49:52
TRACK 03 AUDIO
TITLE "Opus 16"
PERFORMER "Ichthyander Dad's Only Dolphin"
INDEX 01 17:08:69
TRACK 04 AUDIO
TITLE "Castles of Birmingham"
PERFORMER "Ichthyander Dad's Only Dolphin"
INDEX 01 21:45:33
TRACK 05 AUDIO
TITLE "Unmeasured Spaces"
PERFORMER "Ichthyander Dad's Only Dolphin"
INDEX 01 25:05:25
TRACK 06 AUDIO
TITLE "Countdown"
PERFORMER "Ichthyander Dad's Only Dolphin"
INDEX 01 32:42:71
TRACK 07 AUDIO
TITLE "Epiphany"
PERFORMER "Ichthyander Dad's Only Dolphin"
INDEX 01 35:23:33
TRACK 08 AUDIO
TITLE "Comeback to Life"
PERFORMER "Ichthyander Dad's Only Dolphin"
INDEX 01 43:32:13
TRACK 09 AUDIO
TITLE "Starless (King Crimson cover)"
PERFORMER "Ichthyander Dad's Only Dolphin"
INDEX 01 51:50:45


Якщо Ви справді бажаєте підтримати українське - після прослуховування, якщо музика вам сподобалась, придбайте ліцензійний диск. Підтримаймо вітчизняних виконавців!


Срібний реліз (на рейтинг впливає 50% завантаженого)
 Трекер:    Зареєстрований   

Завантажити / скачати українську музику



відео для новачків



 Зареєстрований:   2015-08-22 20:21
 Розмір:   439 MB 
 Оцінка музики:   10/10 (Голосів: 2)
   
Pinguin 
Поважний учасник


З нами з: 08.04.12
Востаннє: 10.12.16
Повідомлень: 190

2015-08-23 14:36  
kolpavel
mp3 буде?

fanDYNAMO 
Частий відвідувач


З нами з: 30.12.12
Востаннє: 05.12.16
Повідомлень: 38

2015-08-25 09:52  
Pinguin написано:
mp3 буде?

http://toloka.to/t67890 - MP3

Ваш часовий пояс: GMT + 2 Години

Нова тема   Відповісти