Завантажити та скачати торренти українською


Ліло та Стіч. Дилогія / Lilo & Stitch. Dilogy (2002-2005) Ukr/Eng | Sub Ukr/Eng

Нові коментарі

Нова тема   Відповісти
Автор Повідомлення
Anonymous 







2015-08-19 23:33  
Ліло та Стіч. Дилогія / Lilo & Stitch. Dilogy (2002-2005) Ukr/Eng | Sub Ukr/Eng

Ліло та Стіч / Lilo & Stitch (2002) Ukr/Eng | Sub Ukr/Eng

Ліло та Стіч / Lilo & Stitch (2002) Ukr/Eng | Sub Ukr/Eng



Жанр: мультфільм, фантастика, комедія, пригоди, сімейний
Країна: США



Кінокомпанія: Walt Disney Feature Animation, Walt Disney Pictures
Режисер: Дін ДеБлуа / Dean DeBlois, Кріс Сандерс / Chris Sanders
Ролі озвучують: Дейві Чейз / Daveigh Chase (Lilo), Кріс Сандерс / Chris Sanders, Тіа Каррере, Девід Огден Стаєрс, Кевін МакДоналд, Вінг Реймс, Зоі Кедвел, Джейсон Скот Лі, Кевін Майкл Річардсон, Сюзан Хегерті, Емі Хілл.

Сюжет:
Ліло - маленька дівчинка, що живе на Гаваях. Вона сирота і живе разом зі своєю старшою сестрою Нанні. Ліло любить всіх тварин, але найбільше вона подружилася з собачкою на ім'я Стіч, яка насправді зовсім не собачка, а - замаскований інопланетянин. Справа була так: якось злочинця на ім'я Стіч переправляли в галактичну в'язницю, але йому вдалося вислизнути і приземлитися на Землі, де він і зустрів Ліло. І тут Стіч прикинувся собакою, щоб сховатися від переслідування галактичної поліції. Тепер Стіч вчиться тому, чому не був навчений - турботі про інших ...


рейтинг MPAA: PG - рекомендується присутність батьків
Вікова категорія: 6+

Тривалість: 01:25:14
Якість: [HQClub]
Відео:
кодек: build 65
розмір кадру: 704x416
бітрейт: 2046 кбіт/с

Аудіо # 1:
мова: українська
переклад: професійний дубльований - LeDoyen Studio, запис з Disney Channel Україна
ролі дублювали: Етель Ененберг, Павло Скороходько, Інна Бєлікова, Володимир Ніколаєнко, Василь Мазур, Ірина Дорошенко, Олександр Ігнатуша, Дмитро Малков та інші. Режисер дубляжу Анна Пащенко, переклад Надії Бойван, звукорежисер Олексій Бевз, асистент режисера дубляжу Ольга Боєва.
кодек: 2.0
бітрейт: 192 кб/с

Аудіо # 2:
мова: англійська
переклад: оригінал
кодек: 5.1
бітрейт: 384 кб/с

Субтитри # 1:
мова: українська (повні)
тип: програмні (м'які)
формат: *.srt

Субтитри # 2:
мова: англійська (повні)
тип: програмні (м'які)
формат: *.srt
MediaInfo
Код:
General
Complete name               : Lilo and Stich (2002) [Ukr,Eng] [Hurtom & HQClub].avi
Format                      : AVI
Format/Info                 : Audio Video Interleave
File size                   : 1.57 GiB
Duration                    : 1h 25mn
Overall bit rate            : 2 636 Kbps
Movie name                  : Ліло та Стіч / Lilo & Stitch (2002)
Director                    : igor911 & sociolog_melvas
Genre                       : мультфільм, фантастика
Writing application         : VirtualDubModRus 1.5.10.2 (build 2540/release)
Copyright                   : Hurtom & HQClub
Comment                     : 19.08.2015

Video
ID                          : 0
Format                      : MPEG-4 Visual
Format profile              : Advanced [email protected]
Format settings, BVOP       : 1
Format settings, QPel       : No
Format settings, GMC        : No warppoints
Format settings, Matrix     : Custom
Codec ID                    :
Codec ID/Hint               :
Duration                    : 1h 25mn
Bit rate                    : 2 046 Kbps
Width                       : 704 pixels
Height                      : 416 pixels
Display aspect ratio        : 5:3
Frame rate                  : 23.976 fps
Color space                 : YUV
Chroma subsampling          : 4:2:0
Bit depth                   : 8 bits
Scan type                   : Progressive
Compression mode            : Lossy
Bits/(Pixel*Frame)          : 0.291
Stream size                 : 1.22 GiB (78%)
Writing library             : 65

Audio #1
ID                          : 1
Format                      : AC-3
Format/Info                 : Audio Coding 3
Mode extension              : CM (complete main)
Format settings, Endianness : Big
Codec ID                    : 2000
Duration                    : 1h 25mn
Bit rate mode               : Constant
Bit rate                    : 192 Kbps
Channel(s)                  : 2 channels
Channel positions           : Front: L R
Sampling rate               : 48.0 KHz
Compression mode            : Lossy
Stream size                 : 117 MiB (7%)
Alignment                   : Split accross interleaves
Interleave, duration        : 42 ms (1.00 video frame)
Interleave, preload duratio : 500 ms
Title                       : Dub Ukr [LeDoyen]

Audio #2
ID                          : 2
Format                      : AC-3
Format/Info                 : Audio Coding 3
Mode extension              : CM (complete main)
Format settings, Endianness : Big
Codec ID                    : 2000
Duration                    : 1h 25mn
Bit rate mode               : Constant
Bit rate                    : 384 Kbps
Channel(s)                  : 6 channels
Channel positions           : Front: L C R, Side: L R, LFE
Sampling rate               : 48.0 KHz
Compression mode            : Lossy
Stream size                 : 234 MiB (15%)
Alignment                   : Split accross interleaves
Interleave, duration        : 42 ms (1.00 video frame)
Interleave, preload duratio : 500 ms
Title                       : Eng
Ліло та Стіч 2 / Lilo & Stitch 2: Stitch Has a Glitch (2005) Ukr/Eng | Sub Ukr/Eng

Ліло та Стіч 2 / Lilo & Stitch 2: Stitch Has a Glitch (2005) Ukr/Eng | Sub Ukr/Eng



Жанр: мультфільм, фантастика, драма, комедія, сімейний
Країна: США



Кінокомпанія: DisneyToon Studios
Режисер: Майкл ЛаБаш / Michael LaBash, Ентоні Леондіс / Anthony Leondis
Ролі озвучують: Кріс Сандерс / Chris Sanders, Дакота Феннінг / Dakota Fanning, Тіа Каррере / Tia Carrere, Девід Огден Стаєрс / David Ogden Stiers, Кевін МакДоналд / Kevin McDonald, Кунева Мук / Kunewa Mook, Джейсон Скот Лі / Jason Scott Lee, Вільям Дж.Капарелла / William J. Caparella, Холлістон Колеман / Holliston Coleman.

Сюжет:
Життя Стіча було веселим і безтурботним. Він допомагає Ліло піти по стопах її матері в підготовці до великого танцювального конкурсу на острові. Життя здається ідеальним, поки Стіч не потрапляє в скрутне становище, і тоді все йде шкереберть. І ось прийшла пора Ліло, Нанні, Джамбо та усій їх великій сім'ї послідувати законам «Охани» і прийти на допомогу маленькому веселому другу.


рейтинг MPAA: PG - рекомендується присутність батьків
Вікова категорія: 6+

Тривалість: 01:08:03
Якість: [HQClub]
Відео:
кодек: build 65
розмір кадру: 704х400
бітрейт: 2210 кбіт/с

Аудіо # 1:
мова: українська
переклад: професійний дубльований - Невафільм Україна (2007)
Режисер дубляжу: Олег Головко
Звукорежисер: Боб Шевяков
Перекладач:: Тетяна Коробова
Ролі дублювали: Євгенія Магда (Ліло), Володимир Терещук (Стіч), Інна Бєлікова (Нані), Дмитро Малков (Девід), Василь Мазур (Джамба), Володимир Ніколаєнко (Пліклі), В'ячеслав Гіндін (Куму) та інші.
кодек: 2.0
бітрейт: 192 кб/с

Аудіо # 2:
мова: англійська
переклад: оригінал
кодек: 5.1
бітрейт: 448 кб/с

Субтитри # 1:
мова: українська (повні)
тип: програмні (м'які)
формат: *.srt

Субтитри # 2-3:
мова: англійська (повні, SDH)
тип: програмні (м'які)
формат: *.srt
MediaInfo
Код:
General
Complete name               : Lilo and Stitch 2 Stitch Has a Glitch (2005) [Ukr,Eng] [Hurtom & HQClub].avi
Format                      : AVI
Format/Info                 : Audio Video Interleave
File size                   : 1.36 GiB
Duration                    : 1h 8mn
Overall bit rate            : 2 864 Kbps
Movie name                  : Ліло та Стіч 2 / Lilo & Stitch 2: Stitch Has a Glitch (2005)
Director                    : igor911 & sociolog_melvas
Genre                       : мультфільм, фантастика
Writing application         : VirtualDubModRus 1.5.10.2 (build 2540/release)
Copyright                   : Hurtom & HQClub
Comment                     : 19.08.2015

Video
ID                          : 0
Format                      : MPEG-4 Visual
Format profile              : Advanced [email protected]
Format settings, BVOP       : 1
Format settings, QPel       : No
Format settings, GMC        : No warppoints
Format settings, Matrix     : Custom
Codec ID                    :
Codec ID/Hint               :
Duration                    : 1h 8mn
Bit rate                    : 2 210 Kbps
Width                       : 704 pixels
Height                      : 400 pixels
Display aspect ratio        : 16:9
Frame rate                  : 23.976 fps
Color space                 : YUV
Chroma subsampling          : 4:2:0
Bit depth                   : 8 bits
Scan type                   : Progressive
Compression mode            : Lossy
Bits/(Pixel*Frame)          : 0.327
Stream size                 : 1.05 GiB (77%)
Writing library             : 65

Audio #1
ID                          : 1
Format                      : AC-3
Format/Info                 : Audio Coding 3
Mode extension              : CM (complete main)
Format settings, Endianness : Big
Codec ID                    : 2000
Duration                    : 1h 8mn
Bit rate mode               : Constant
Bit rate                    : 192 Kbps
Channel(s)                  : 2 channels
Channel positions           : Front: L R
Sampling rate               : 48.0 KHz
Compression mode            : Lossy
Stream size                 : 93.5 MiB (7%)
Alignment                   : Split accross interleaves
Interleave, duration        : 42 ms (1.00 video frame)
Interleave, preload duratio : 500 ms
Title                       : Dub [Neva-Film Ukraine]

Audio #2
ID                          : 2
Format                      : AC-3
Format/Info                 : Audio Coding 3
Mode extension              : CM (complete main)
Format settings, Endianness : Big
Codec ID                    : 2000
Duration                    : 1h 8mn
Bit rate mode               : Constant
Bit rate                    : 448 Kbps
Channel(s)                  : 6 channels
Channel positions           : Front: L C R, Side: L R, LFE
Sampling rate               : 48.0 KHz
Compression mode            : Lossy
Stream size                 : 218 MiB (16%)
Alignment                   : Split accross interleaves
Interleave, duration        : 42 ms (1.00 video frame)
Interleave, preload duratio : 500 ms
Title                       : Eng



Джерела та подяки: &
ріп відео, оригінальні звук та субтитри - sociolog_melvas (HQClub); українські доріжки - MutuLI - зведення, voan, xslim, mihal_97 (1), karvai0 та stickerz (2) - запис з ТБ; українські субтитри - Віктор (1), українські постери - Gelios; фільмографії акторів та інформація про озвучення - Віктор (всі - Гуртом).

Особиста оцінка: 10 - рекомендую всім дітям та їх батькам, щоб ще раз замислитись про значення сім'ї у нашому житті Happy






ЗАЛИШАЙТЕСЬ ЯКОМОГА ДОВШЕ НА РОЗДАЧІ!

СКАЧАВ САМ - ДАЙ СКАЧАТИ ІНШИМ


Срібний реліз (на рейтинг впливає 50% завантаженого)
 Трекер:    Зареєстрований   

Завантажити / скачати мультфільм українською



відео для новачків



 Зареєстрований:   2015-08-19 23:33
 Розмір:   2.93 GB 
 Оцінка мультфільму:   7.1/10 (Голосів: 36)
   
Інші релізи
bogdanich 
VIP


З нами з: 24.10.13
Востаннє: 08.12.16
Повідомлень: 359

2015-08-25 15:56  
Перша частина цікава!
8/10.
Друга не дуже!
4/10.
Дякую!

Ваш часовий пояс: GMT + 2 Години

Нова тема   Відповісти