Завантажити та скачати торренти українською


Фокус Покус / Hocus Pocus (1993) 720p Ukr/Eng | Sub Eng

Нові коментарі

Нова тема   Відповісти
Автор Повідомлення
Anonymous 







2015-08-19 18:07  
Фокус Покус / Hocus Pocus (1993) 720p Ukr/Eng | Sub Eng



Альтернативний постер



Жанр: фентезі, комедія, сімейний
Країна: США



Кінокомпанія: Walt Disney Pictures
Режисер: Кенні Ортеґа / Kenny Ortega
Актори: Бетті Мідлер / Bette Midler, Сара Джессіка Паркер / Sarah Jessica Parker, Кеті Наджімі / Kathy Najimy, Омрі Катц / Omri Katz, Вінесса Шоу / Vinessa Shaw та інші

Сюжет:
Згідно з легендою, якщо безневинна дитина в ніч на Хелловін запалить свічку в будинку сестер Сандерсон, то відьми повстануть з могил та з'їдять всіх дітей у місті, щоб самим стати вічно молодими.
Оскільки підступним сестрицям судилося воскреснути через 300 років після страти за чаклунство, їм доведеться звикати до сучасних вдач. Наприклад, навіщо літати на мітлі, якщо є пилосос? Роблячи всякі магічні гидоти, сестриці Сандерсон так захоплюються цим заняттям, що забувають про свого хитрого противника - чорного кота ...


Рейтинг MPAA: PG - рекомендується присутність батьків
Вікова категорія: 6+

Тривалість: 01:36:08
Якість: 720p
Відео:
кодек:
розмір кадру: 1280 х 694
бітрейт: 5732 кбіт/с

Аудіо # 1:
мова: українська
переклад: двоголосий закадровий
ролі озвучили: Євген Нищук і Юлія Перенчук
кодек: 2.0
бітрейт: 192 кбіт/с
примітка: на кілька неозвучених фраз перед титрами я зробив форсовані субтитри (igor911)

Аудіо # 2:
мова: англійська
переклад: оригінал
кодек: 5.1
бітрейт: 640 кбіт/с

Субтитри # 1:
мова: українська (форсовані, на кілька неозвучених фраз перед титрами)
тип: програмні (м'які)
формат: *.srt

Субтитри # 2:
мова: англійська
тип: програмні (м'які)
формат: *.srt

Збережено оригінальні розділи, як на Blu-ray.
MediaInfo та log
Код:
General
Unique ID                   : 213427618224784921058789105035285564155 (0xA090AA01CA9F52F3A0E75EEFB0F30AFB)
Complete name               : Hocus Pocus (1993) [Ukr,Eng sub.Eng] 720p [Hurtom & HDCLUB].mkv
Format                      : Matroska
Format version              : Version 4 / Version 2
File size                   : 4.41 GiB
Duration                    : 1h 36mn
Overall bit rate            : 6 551 Kbps
Movie name                  : Фокус Покус / Hocus Pocus (1993) [Ukr,Eng sub.Eng] 720p [Hurtom & HDCLUB]
Encoded date                : UTC 2015-08-19 05:48:04
Writing application         : mkvmerge v8.3.0 ('Over the Horizon') 64bit
Writing library             : libebml v1.3.1 + libmatroska v1.4.2
Attachements                : cover.jpg
DURATION                    : 00:00:23.980000000
NUMBER_OF_FRAMES            : 4
NUMBER_OF_BYTES             : 173
_STATISTICS_WRITING_APP     : mkvmerge v8.3.0 ('Over the Horizon') 64bit
_STATISTICS_WRITING_DATE_UT : 2015-08-19 05:48:04
_STATISTICS_TAGS            : BPS DURATION NUMBER_OF_FRAMES NUMBER_OF_BYTES

Video
ID                          : 1
Format                      : AVC
Format/Info                 : Advanced Video Codec
Format profile              : [email protected]
Format settings, CABAC      : Yes
Format settings, ReFrames   : 9 frames
Codec ID                    : V_MPEG4/ISO/AVC
Duration                    : 1h 36mn
Bit rate                    : 5 732 Kbps
Width                       : 1 280 pixels
Height                      : 694 pixels
Display aspect ratio        : 1.85:1
Frame rate mode             : Constant
Frame rate                  : 23.976 fps
Color space                 : YUV
Chroma subsampling          : 4:2:0
Bit depth                   : 8 bits
Scan type                   : Progressive
Bits/(Pixel*Frame)          : 0.269
Stream size                 : 3.76 GiB (85%)
Title                       : Фокус Покус / Hocus Pocus (1993) 720p [0ptimus]
Writing library             : core 125 r2208 d9d2288
Encoding settings           : cabac=1 / ref=9 / deblock=1:-3:-3 / analyse=0x3:0x113 / me=esa / subme=11 / psy=1 / psy_rd=1.00:0.20 / mixed_ref=1 / me_range=32 / chroma_me=1 / trellis=2 / 8x8dct=1 / cqm=0 / deadzone=21,11 / fast_pskip=0 / chroma_qp_offset=-3 / threads=4 / lookahead_threads=1 / sliced_threads=0 / nr=0 / decimate=0 / interlaced=0 / bluray_compat=0 / constrained_intra=0 / bframes=13 / b_pyramid=2 / b_adapt=2 / b_bias=0 / direct=3 / weightb=1 / open_gop=0 / weightp=2 / keyint=240 / keyint_min=23 / scenecut=40 / intra_refresh=0 / rc_lookahead=40 / rc=2pass / mbtree=0 / bitrate=5732 / ratetol=1.0 / qcomp=0.60 / qpmin=0 / qpmax=69 / qpstep=4 / cplxblur=20.0 / qblur=0.5 / vbv_maxrate=50000 / vbv_bufsize=50000 / nal_hrd=none / ip_ratio=1.40 / pb_ratio=1.30 / aq=1:1.00
Language                    : English
Default                     : Yes
Forced                      : No
DURATION                    : 01:36:08.054000000
NUMBER_OF_FRAMES            : 138295
NUMBER_OF_BYTES             : 4127638737
_STATISTICS_WRITING_APP     : mkvmerge v8.3.0 ('Over the Horizon') 64bit
_STATISTICS_WRITING_DATE_UT : 2015-08-19 05:48:04
_STATISTICS_TAGS            : BPS DURATION NUMBER_OF_FRAMES NUMBER_OF_BYTES

Audio #1
ID                          : 2
Format                      : AC-3
Format/Info                 : Audio Coding 3
Mode extension              : CM (complete main)
Format settings, Endianness : Big
Codec ID                    : A_AC3
Duration                    : 1h 36mn
Bit rate mode               : Constant
Bit rate                    : 192 Kbps
Channel(s)                  : 2 channels
Channel positions           : Front: L R
Sampling rate               : 48.0 KHz
Compression mode            : Lossy
Stream size                 : 132 MiB (3%)
Title                       : DVO [TET] 2.0 192 kbps [Hurtom-robotron005]
Language                    : Ukrainian
Default                     : Yes
Forced                      : No

Audio #2
ID                          : 3
Format                      : AC-3
Format/Info                 : Audio Coding 3
Mode extension              : CM (complete main)
Format settings, Endianness : Big
Codec ID                    : A_AC3
Duration                    : 1h 36mn
Bit rate mode               : Constant
Bit rate                    : 640 Kbps
Channel(s)                  : 6 channels
Channel positions           : Front: L C R, Side: L R, LFE
Sampling rate               : 48.0 KHz
Compression mode            : Lossy
Stream size                 : 441 MiB (10%)
Title                       : Original 5.1 640 kbps
Language                    : English
Default                     : No
Forced                      : No

Text #1
ID                          : 4
Format                      : UTF-8
Codec ID                    : S_TEXT/UTF8
Codec ID/Info               : UTF-8 Plain Text
Title                       : Ukr forced
Language                    : Ukrainian
Default                     : Yes
Forced                      : Yes

Text #2
ID                          : 5
Format                      : UTF-8
Codec ID                    : S_TEXT/UTF8
Codec ID/Info               : UTF-8 Plain Text
Title                       : Eng full
Language                    : English
Default                     : No
Forced                      : No

Menu
00:00:00.000                : en:00:00:00.000
00:08:40.937                : en:00:08:40.937
00:14:01.466                : en:00:14:01.466
00:20:20.010                : en:00:20:20.010
00:26:46.480                : en:00:26:46.480
00:32:11.596                : en:00:32:11.596
00:36:44.077                : en:00:36:44.077
00:43:59.595                : en:00:43:59.595
00:48:04.298                : en:00:48:04.298
00:54:18.630                : en:00:54:18.630
01:01:23.346                : en:01:01:23.346
01:06:03.168                : en:01:06:03.168
01:08:22.724                : en:01:08:22.724
01:14:39.850                : en:01:14:39.850
01:21:30.344                : en:01:21:30.344
01:29:10.554                : en:01:29:10.554


Код:
[info]: frame I:1064 Avg QP:17.24 size:107798
[info]: frame P:28143 Avg QP:19.87 size: 49066
[info]: frame B:109088 Avg QP:20.72 size: 24128




Джерела та подяки: &
ріп відео, оригінальні звук та субтитри - 0ptimus (HDClub); українська доріжка - robotron005 - зведення, POMEO - запис з ТБ; фільмографії акторів та інформація про озвучення - Віктор (всі - Гуртом).





ЗАЛИШАЙТЕСЬ ЯКОМОГА ДОВШЕ НА РОЗДАЧІ!

СКАЧАВ САМ - ДАЙ СКАЧАТИ ІНШИМ


Срібний реліз (на рейтинг впливає 50% завантаженого)
 Трекер:    Зареєстрований   

Завантажити / скачати фільм українською



відео для новачків



 Зареєстрований:   2015-08-19 18:07
 Розмір:   4.41 GB 
 Оцінка фільму:   2.5/10 (Голосів: 12)
   
Інші релізи
   Фокус Покус / Hocus Pocus (1993) Ukr/Eng | Sub Eng robotron005  5 / 0   1.58 GB   2014-08-29 22:23 
Ваш часовий пояс: GMT + 2 Години

Нова тема   Відповісти