Завантажити та скачати торренти українською


Місія нездійсненна. Колекція / Mission: Impossible. Collection (1996, 2000, 2006, 2011, 2015) 720p Ukr/Eng | Sub Ukr/Eng

Нові коментарі

Нова тема   Відповісти
Автор Повідомлення
Anonymous 







2015-08-19 16:31  
Місія нездійсненна. Колекція / Mission: Impossible. Collection (1996, 2000, 2006, 2011, 2015) 720p Ukr/Eng | Sub Ukr/Eng

Місія нездійсненна / Mission: Impossible (1996) 720p Ukr/Eng | Sub Eng

Місія нездійсненна / Mission: Impossible (1996) 720p Ukr/Eng | Sub Eng



Альтернативний постер

Місія нездійсненна. Колекція / Mission: Impossible. Collection (1996, 2000, 2006, 2011, 2015) 720p Ukr/Eng | Sub Ukr/Eng


Жанр: детектив, бойовик
Країна: США



Кіностудія / кінокомпанія: Paramount Pictures, Cruise/Wagner Productions
Режисер: Браян Де Пальма / Brian De Palma
Актори: Том Круз / Tom Cruise, Джон Войт / Jon Voight, Емануель Бер / Emmanuelle Béart, Генрі Черні / Henry Czerny, Жан Рено / Jean Reno, Вінґ Реймс / Ving Rhames, Крістін Скотт-Томас / Kristin Scott Thomas, Ванесса Редґрейв / Vanessa Redgrave, Дейл Дай / Dale Dye, Марчел Юреш / Marcel Iures, Інгеборга Дапкунайте / Ingeborga Dapkunaite та інші

Сюжет:
Групу таємних агентів ЦРУ посилають на завдання: схопити зрадника, який повинен викрасти з комп'ютера список таємних агентів і продати його терористам. Агенти прибувають на завдання, але невідомим чином усі гинуть один за одним. Уцілів лише агент Ітан Хант. Виявляється, дана операція була лише приманкою, щоб виявити крота у ЦРУ. Той, хто вижив, - головний підозрюваний. Ітан Хант залишається сам на сам проти ЦРУ та бандитів, які його підставили. Його місія - знайти справжнього зрадника, навіть якщо для цього доведеться виконати нездійсненне завдання...

Шпигунський супербойовик талановитого послідовника хічхоківських традицій у кінематографі, майстра трилерів та фільмів жахів - режисера Брайяна Де Пальми. Незмінні атрибути жанру - запаморочливі трюки, використання надсучасних технологій, перегони на швидкісних потягах, перестрілки та бійки, красиві жінки. А на десерт зірковий склад акторів.


Рейтинг MPAA: PG-13 - дітям до 13 років перегляд не бажаний
Вікова категорія: 12+

Тривалість: 01:50:12
Якість: 720p
Відео:
кодек:
розмір кадру: 1280x532
бітрейт: 4348 кбіт/с [crf=18]

Аудіо # 1:
мова: українська
переклад: багатоголосий закадровий
ролі озвучили: Владислав Пупков, Олег Лепенець, Тетяна Антонова і Лідія Муращенко
кодек: 2.0
бітрейт: 192 кбіт/с
примітка: з аналогічним озвученням фільм транслювався по ICTV та НТН

Аудіо # 2:
мова: англійська
переклад: оригінал
кодек: 5.1
бітрейт: 1509 кбіт/с

Субтитри:
мова: англійська
тип: програмні (м'які)
формат: *.srt

Збережено оригінальні розділи, як на Blu-ray
MediaInfo та x264log
Код:
General
Unique ID                   : 219106794816373358704090716502928819334 (0xA4D66F07FB924385B895C0AD00168486)
Complete name               : Mission Impossible 1 (1996) [Ukr,Eng sub.Eng] 7200p [Hurtom & HDClub].mkv
Format                      : Matroska
Format version              : Version 4 / Version 2
File size                   : 4.66 GiB
Duration                    : 1h 50mn
Overall bit rate            : 6 053 Kbps
Movie name                  : Місія: Нездійсненна / Mission: Impossible (1996) [Ukr,Eng sub.Eng] 720p [Hurtom & HDClub]
Encoded date                : UTC 2015-08-18 20:17:15
Writing application         : mkvmerge v8.3.0 ('Over the Horizon') 64bit
Writing library             : libebml v1.3.1 + libmatroska v1.4.2
Attachements                : cover.jpg / xlog.txt
DURATION                    : 01:50:12.608000000
NUMBER_OF_FRAMES            : 619932
NUMBER_OF_BYTES             : 1247303184
_STATISTICS_WRITING_APP     : mkvmerge v8.3.0 ('Over the Horizon') 64bit
_STATISTICS_WRITING_DATE_UT : 2015-08-18 20:17:15
_STATISTICS_TAGS            : BPS DURATION NUMBER_OF_FRAMES NUMBER_OF_BYTES

Video
ID                          : 1
Format                      : AVC
Format/Info                 : Advanced Video Codec
Format profile              : [email protected]
Format settings, CABAC      : Yes
Format settings, ReFrames   : 11 frames
Codec ID                    : V_MPEG4/ISO/AVC
Duration                    : 1h 50mn
Bit rate                    : 4 231 Kbps
Width                       : 1 280 pixels
Height                      : 532 pixels
Display aspect ratio        : 2.40:1
Frame rate mode             : Constant
Frame rate                  : 23.976 fps
Color space                 : YUV
Chroma subsampling          : 4:2:0
Bit depth                   : 8 bits
Scan type                   : Progressive
Bits/(Pixel*Frame)          : 0.259
Stream size                 : 3.26 GiB (70%)
Title                       : Місія: Нездійсненна / Mission: Impossible / Миссия: невыполнима (1996) 720p [HDClub-Skazhutin]
Writing library             : core 120 r2146kMod bcd41db
Encoding settings           : cabac=1 / ref=11 / deblock=1:-3:-3 / analyse=0x3:0x113 / me=umh / subme=11 / psy=1 / fade_compensate=0.00 / psy_rd=1.00:0.00 / mixed_ref=1 / me_range=48 / chroma_me=1 / trellis=2 / 8x8dct=1 / cqm=0 / deadzone=21,11 / fast_pskip=1 / chroma_qp_offset=-2 / threads=12 / sliced_threads=0 / nr=0 / decimate=1 / interlaced=0 / bluray_compat=0 / constrained_intra=0 / bframes=9 / b_pyramid=2 / b_adapt=2 / b_bias=0 / direct=1 / weightb=1 / open_gop=0 / weightp=2 / keyint=250 / keyint_min=23 / scenecut=40 / intra_refresh=0 / rc_lookahead=60 / rc=crf / mbtree=1 / crf=18.0000 / qcomp=0.60 / qpmin=0 / qpmax=69 / qpstep=4 / vbv_maxrate=50000 / vbv_bufsize=62500 / crf_max=0.0 / nal_hrd=none / ip_ratio=1.40 / aq=3:1.00
Language                    : English
Default                     : Yes
Forced                      : No
Color range                 : Limited
Matrix coefficients         : BT.709
DURATION                    : 01:50:12.606000000
NUMBER_OF_FRAMES            : 158544
NUMBER_OF_BYTES             : 3594612168
_STATISTICS_WRITING_APP     : mkvmerge v8.3.0 ('Over the Horizon') 64bit
_STATISTICS_WRITING_DATE_UT : 2015-08-18 20:17:15
_STATISTICS_TAGS            : BPS DURATION NUMBER_OF_FRAMES NUMBER_OF_BYTES

Audio #1
ID                          : 2
Format                      : AC-3
Format/Info                 : Audio Coding 3
Mode extension              : CM (complete main)
Format settings, Endianness : Big
Codec ID                    : A_AC3
Duration                    : 1h 50mn
Bit rate mode               : Constant
Bit rate                    : 192 Kbps
Channel(s)                  : 2 channels
Channel positions           : Front: L R
Sampling rate               : 48.0 KHz
Compression mode            : Lossy
Delay relative to video     : 13ms
Stream size                 : 151 MiB (3%)
Title                       : MVO [Inter] 2.0 192 kbps [Hurtom-voin747,xslim]
Language                    : Ukrainian
Default                     : Yes
Forced                      : No

Audio #2
ID                          : 3
Format                      :
Format/Info                 : Digital Theater Systems
Mode                        : 16
Format settings, Endianness : Big
Codec ID                    : A_DTS
Duration                    : 1h 50mn
Bit rate mode               : Constant
Bit rate                    : 1 509 Kbps
Channel(s)                  : 6 channels
Channel positions           : Front: L C R, Side: L R, LFE
Sampling rate               : 48.0 KHz
Bit depth                   : 24 bits
Compression mode            : Lossy
Stream size                 : 1.16 GiB (25%)
Title                       : Original 5.1 1509 kbps
Language                    : English
Default                     : No
Forced                      : No

Text
ID                          : 4
Format                      : UTF-8
Codec ID                    : S_TEXT/UTF8
Codec ID/Info               : UTF-8 Plain Text
Title                       : Eng full
Language                    : English
Default                     : No
Forced                      : No

Menu
00:00:00.000                : en:Kiev
00:03:00.972                : en:Good Morning, Mr. Phelps
00:10:44.727                : en:Golitsyn
00:26:43.811                : en:Mole Hunt
00:32:21.481                : en:Job 3:14
00:39:50.388                : en:Max
00:49:39.143                : en:Disavowed
00:55:45.634                : en:The Black Vault
01:12:25.716                : en:NOC List
01:18:34.460                : en:No More Secrets
01:28:14.539                : en:Masquerade
01:38:06.714                : en:Red Light Green Light
01:44:02.778                : en:"Aruba, Perhaps?"


Код:
y4m [info]: 1280x532p 1:1 @ 24000/1001 fps (cfr)
[info]: using SAR=1/1
[info]: using cpu capabilities: MMX2 SSE2Fast SSSE3 FastShuffle SSE4.2
[info]: profile High, level 4.1
[info]: frame I:1293  Avg QP:14.94  size:126550
[info]: frame P:32842 Avg QP:18.29  size: 41110
[info]: frame B:124409 Avg QP:21.28  size: 16726
[info]: consecutive B-frames:  2.9%  1.4%  2.8% 16.8% 18.4% 43.6%  7.3%  4.5%  1.4%  0.9%
[info]: mb I  I16..4:  3.9% 75.6% 20.5%
[info]: mb P  I16..4:  0.9% 12.2%  1.4%  P16..4: 30.8% 37.8% 11.9%  0.0%  0.0%    skip: 5.0%
[info]: mb B  I16..4:  0.1%  3.4%  0.2%  B16..8: 37.3% 17.4%  3.1%  direct: 5.9%  skip:32.6%  L0:44.2% L1:45.9% BI: 9.9%
[info]: 8x8 transform intra:86.5% inter:62.2%
[info]: coded y,uvDC,uvAC intra: 91.4% 82.9% 51.5% inter: 28.2% 21.1% 2.8%
[info]: i16 v,h,dc,p: 39% 19%  5% 36%
[info]: i8 v,h,dc,ddl,ddr,vr,hd,vl,hu: 10%  7% 13% 10% 13% 12% 12% 11% 12%
[info]: i4 v,h,dc,ddl,ddr,vr,hd,vl,hu: 34%  7%  6%  7% 11% 10% 10%  8%  9%
[info]: i8c dc,h,v,p: 35% 29% 20% 16%
[info]: Weighted P-Frames: Y:3.8% UV:2.2%
[info]: ref P L0: 39.5%  7.9% 20.2%  7.3%  6.8%  4.5%  4.6%  2.4%  2.5%  1.9%  2.0%  0.3%  0.0%
[info]: ref B L0: 72.8% 12.0%  5.3%  3.0%  2.0%  1.8%  1.3%  0.9%  0.5%  0.3%
[info]: ref B L1: 93.7%  6.3%
[info]: kb/s:4348.80

encoded 158544 frames, 7.73 fps, 4348.80 kb/s
[info]: ended at Sun Mar 04 11:24:18 2012
Ріп<----------> Оригінал







Джерела та подяки: &
ріп відео, оригінальні звук та субтитри - Skazhutin (HDClub); українська доріжка - voin747 - зведення, xslim - запис з ТБ; українізовані постери - Gelios, Leib; фільмографії акторів та інформація про озвучення - Віктор (всі - Гуртом).
Місія нездійсненна 2 / Mission: Impossible II (2000) 720p 2xUkr/Eng | Sub Eng

Місія нездійсненна 2 / Mission: Impossible II (2000) 720p 2xUkr/Eng | Sub Eng



Оригінальний постер



Жанр: бойовик, трилер, детектив
Країна: США, Німеччина



Кіностудія / кінокомпанія: Paramount Pictures, Cruise/Wagner Productions, Munich Film Partners & Company (MFP) MI2 Productions
Режисер: Джон Ву / John Woo
Актори: Том Круз / Tom Cruise, Ентоні Гопкінс / Anthony Hopkins, Даґрей Скот / Dougray Scott, Тенді Ньютон / Thandie Newton, Вінґ Реймс / Ving Rhames, Річард Роксбурґ / Richard Roxburgh, Джон Полсон / John Polson, Брендан Ґлісон / Brendan Gleeson, Раді Шербеджія / Rade Serbedzija, Вільям Мапотер / William Mapother, Домінік Пурселл / Dominic Purcell та інші

Сюжет:
Том Круз знову постає перед нами у ролі незрівнянного шпигуна Ітана Ханта. Найвідоміший режисер бойовиків Джон Ву запрошує нас стати свідками нових неймовірних пригод відважного суперагента. Якщо світ раптом опиняється перед обличчям жахливої катастрофи, є лише одна людина, здатна виправити становище. Її ім'я - Ітан Хант, природжений спеціаліст з вирішення нездійсненних завдань. Тепер у Ітана новий суворий начальник (Ентоні Хопкінс), нова чарівна дівчина (Тенді Ньютон), новий злісний противник (Даґрей Скот) і нове завдання, яке не під силу звичайному смертному.
Цього разу таємного агента посилають до Сіднею, щоб знайти генетично модифікований вірус під назвою "Химера".


Рейтинг MPAA: PG-13 - дітям до 13 років перегляд не бажаний
Вікова категорія: 12+

Тривалість: 02:03:35
Якість: 720p
Відео:
кодек:
розмір кадру: 1280x530
бітрейт: 6482 кбіт/с [crf=18]

Аудіо # 1:
мова: українська
переклад: багатоголосий закадровий
ролі озвучили: Владислав Пупков, Олесь Гімбаржевськийй, Олег Лепенець і Ніна Касторф
кодек: 2.0
бітрейт: 192 кбіт/с

Аудіо # 2:
мова: українська
переклад: двоголосий закадровий
ролі озвучили: Інна Капінос і Володимир Голосняк
кодек: 2.0
бітрейт: 192 кбіт/с

Аудіо # 3:
мова: англійська
переклад: оригінал
кодек: 5.1
бітрейт: 1509 кбіт/с

Субтитри:
мова: англійська
тип: програмні (м'які)
формат: *.srt

Збережено оригінальні розділи, як на Blu-ray
MediaInfo та x264log
Код:
General
Unique ID                   : 214170370910318234432075275824635448395 (0xA11FB68AAF722D309F404541D8920C4B)
Complete name               : Mission Impossible 2 (2000) [2xUkr,Eng sub.Eng] 720p [Hurtom & HDClub].mkv
Format                      : Matroska
Format version              : Version 4 / Version 2
File size                   : 7.23 GiB
Duration                    : 2h 3mn
Overall bit rate            : 8 379 Kbps
Movie name                  : Місія: Нездійсненна 2 / Mission: Impossible II (2000) [2xUkr,Eng sub.Eng] 720p [Hurtom & HDClub]
Encoded date                : UTC 2015-08-18 19:37:21
Writing application         : mkvmerge v8.3.0 ('Over the Horizon') 64bit
Writing library             : libebml v1.3.1 + libmatroska v1.4.2
Attachements                : cover.jpg / xlog.txt
DURATION                    : 02:03:35.414000000
NUMBER_OF_FRAMES            : 695195
NUMBER_OF_BYTES             : 1398732340
_STATISTICS_WRITING_APP     : mkvmerge v8.3.0 ('Over the Horizon') 64bit
_STATISTICS_WRITING_DATE_UT : 2015-08-18 19:37:21
_STATISTICS_TAGS            : BPS DURATION NUMBER_OF_FRAMES NUMBER_OF_BYTES

Video
ID                          : 1
Format                      : AVC
Format/Info                 : Advanced Video Codec
Format profile              : [email protected]
Format settings, CABAC      : Yes
Format settings, ReFrames   : 11 frames
Codec ID                    : V_MPEG4/ISO/AVC
Duration                    : 2h 3mn
Bit rate                    : 6 319 Kbps
Width                       : 1 280 pixels
Height                      : 530 pixels
Display aspect ratio        : 2.40:1
Frame rate mode             : Constant
Frame rate                  : 23.976 fps
Color space                 : YUV
Chroma subsampling          : 4:2:0
Bit depth                   : 8 bits
Scan type                   : Progressive
Bits/(Pixel*Frame)          : 0.388
Stream size                 : 5.45 GiB (75%)
Title                       : Місія: Нездійсненна 2 / Mission: Impossible II / Миссия: невыполнима 2 (2000) 720p [HDClub-Skazhutin]
Writing library             : core 120 r2146kMod bcd41db
Encoding settings           : cabac=1 / ref=11 / deblock=1:-3:-3 / analyse=0x3:0x113 / me=umh / subme=11 / psy=1 / fade_compensate=0.00 / psy_rd=0.95:0.00 / mixed_ref=1 / me_range=48 / chroma_me=1 / trellis=2 / 8x8dct=1 / cqm=0 / deadzone=21,11 / fast_pskip=1 / chroma_qp_offset=-2 / threads=12 / sliced_threads=0 / nr=0 / decimate=1 / interlaced=0 / bluray_compat=0 / constrained_intra=0 / bframes=8 / b_pyramid=2 / b_adapt=2 / b_bias=0 / direct=1 / weightb=1 / open_gop=0 / weightp=2 / keyint=250 / keyint_min=23 / scenecut=40 / intra_refresh=0 / rc_lookahead=60 / rc=crf / mbtree=1 / crf=18.0000 / qcomp=0.63 / qpmin=0 / qpmax=69 / qpstep=4 / vbv_maxrate=50000 / vbv_bufsize=62500 / crf_max=0.0 / nal_hrd=none / ip_ratio=1.40 / aq=3:0.80
Language                    : English
Default                     : Yes
Forced                      : No
Color range                 : Limited
Matrix coefficients         : BT.709
DURATION                    : 02:03:35.408000000
NUMBER_OF_FRAMES            : 177792
NUMBER_OF_BYTES             : 6008732337
_STATISTICS_WRITING_APP     : mkvmerge v8.3.0 ('Over the Horizon') 64bit
_STATISTICS_WRITING_DATE_UT : 2015-08-18 19:37:21
_STATISTICS_TAGS            : BPS DURATION NUMBER_OF_FRAMES NUMBER_OF_BYTES

Audio #1
ID                          : 2
Format                      : AC-3
Format/Info                 : Audio Coding 3
Mode extension              : CM (complete main)
Format settings, Endianness : Big
Codec ID                    : A_AC3
Duration                    : 2h 3mn
Bit rate mode               : Constant
Bit rate                    : 192 Kbps
Channel(s)                  : 2 channels
Channel positions           : Front: L R
Sampling rate               : 48.0 KHz
Compression mode            : Lossy
Delay relative to video     : 13ms
Stream size                 : 170 MiB (2%)
Title                       : MVO [Inter] 2.0 192 kbps [Hurtom-BILko,xslim]
Language                    : Ukrainian
Default                     : Yes
Forced                      : No

Audio #2
ID                          : 3
Format                      : AC-3
Format/Info                 : Audio Coding 3
Mode extension              : CM (complete main)
Format settings, Endianness : Big
Codec ID                    : A_AC3
Duration                    : 2h 3mn
Bit rate mode               : Constant
Bit rate                    : 192 Kbps
Channel(s)                  : 2 channels
Channel positions           : Front: L R
Sampling rate               : 48.0 KHz
Compression mode            : Lossy
Delay relative to video     : 13ms
Stream size                 : 170 MiB (2%)
Title                       : DVO [Novyj] 2.0 192 kbps [Hurtom-BILko,xslim]
Language                    : Ukrainian
Default                     : No
Forced                      : No

Audio #3
ID                          : 4
Format                      :
Format/Info                 : Digital Theater Systems
Mode                        : 16
Format settings, Endianness : Big
Codec ID                    : A_DTS
Duration                    : 2h 3mn
Bit rate mode               : Constant
Bit rate                    : 1 509 Kbps
Channel(s)                  : 6 channels
Channel positions           : Front: L C R, Side: L R, LFE
Sampling rate               : 48.0 KHz
Bit depth                   : 24 bits
Compression mode            : Lossy
Stream size                 : 1.30 GiB (18%)
Title                       : Original 5.1 1509 kbps
Language                    : English
Default                     : No
Forced                      : No

Text
ID                          : 5
Format                      : UTF-8
Codec ID                    : S_TEXT/UTF8
Codec ID/Info               : UTF-8 Plain Text
Title                       : Eng full
Language                    : English
Default                     : No
Forced                      : No

Menu
00:00:00.000                : en:Old Friend
00:05:57.023                : en:Holiday
00:10:39.346                : en:I See You Found It
00:18:03.414                : en:Catch Me
00:23:47.342                : en:Sean Ambrose
00:34:47.876                : en:A Welcome
00:45:40.070                : en:Don't Turn Around
00:56:08.405                : en:A Touch of the Flu
01:05:07.695                : en:Biocyte
01:11:38.961                : en:The Last Strain
01:18:24.740                : en:I Guess I Lied
01:25:59.904                : en:Supply and Demand
01:35:40.109                : en:Smile
01:40:16.801                : en:Race Against Time
01:49:33.692                : en:Mano a Mano
01:53:59.164                : en:Destroyed By Fire
01:58:58.588                : en:End Credits


Код:
y4m [info]: 1280x530p 1:1 @ 24000/1001 fps (cfr)
[info]: using SAR=1/1
[info]: using cpu capabilities: MMX2 SSE2Fast SSSE3 FastShuffle SSE4.2
[info]: profile High, level 4.1
[info]: frame I:1600  Avg QP:15.81  size:123899
[info]: frame P:38590 Avg QP:19.38  size: 51349
[info]: frame B:137602 Avg QP:21.24  size: 27826
[info]: consecutive B-frames:  2.2%  2.6%  6.2% 22.8% 18.8% 38.0%  5.0%  3.6%  0.9%
[info]: mb I  I16..4:  3.2% 81.4% 15.4%
[info]: mb P  I16..4:  0.7% 20.7%  1.8%  P16..4: 26.9% 34.8% 10.9%  0.0%  0.0%    skip: 4.1%
[info]: mb B  I16..4:  0.1%  6.7%  0.3%  B16..8: 38.4% 22.3%  4.6%  direct: 7.7%  skip:19.8%  L0:42.8% L1:44.0% BI:13.1%
[info]: 8x8 transform intra:90.8% inter:63.0%
[info]: coded y,uvDC,uvAC intra: 95.3% 81.0% 42.1% inter: 40.9% 29.8% 2.4%
[info]: i16 v,h,dc,p: 28% 39%  3% 30%
[info]: i8 v,h,dc,ddl,ddr,vr,hd,vl,hu:  8%  9% 12%  9% 14% 11% 14% 10% 14%
[info]: i4 v,h,dc,ddl,ddr,vr,hd,vl,hu: 28% 10%  4%  7% 12%  9% 11%  8% 11%
[info]: i8c dc,h,v,p: 29% 33% 19% 19%
[info]: Weighted P-Frames: Y:4.0% UV:1.7%
[info]: ref P L0: 43.4%  9.8% 19.2%  7.4%  6.0%  4.0%  3.5%  1.9%  1.8%  1.5%  1.5%  0.2%  0.0%
[info]: ref B L0: 74.4% 11.6%  5.3%  2.8%  1.9%  1.5%  1.1%  0.7%  0.4%  0.2%
[info]: ref B L1: 93.3%  6.7%
[info]: kb/s:6482.43

encoded 177792 frames, 5.27 fps, 6482.43 kb/s
[info]: ended at Fri Mar 09 19:06:01 2012
Ріп<----------> Оригінал







Джерела та подяки: &
ріп відео, оригінальні звук та субтитри - Skazhutin (HDClub); українська доріжка - BILko - зведення, xslim та BILko - запис з ТБ; українізований постер - Gelios; фільмографії акторів та інформація про озвучення - Віктор (всі - Гуртом).
Місія нездійсненна 3 / Mission: Impossible III (2006) 720p 2xUkr/Eng | Sub Ukr/Eng

Місія нездійсненна 3 / Mission: Impossible III (2006) 720p 2xUkr/Eng | Sub Ukr/Eng



Оригінальний постер

Місія нездійсненна. Колекція / Mission: Impossible. Collection (1996, 2000, 2006, 2011, 2015) 720p Ukr/Eng | Sub Ukr/Eng


Жанр: бойовик, трилер, пригоди
Країна: США, Німеччина, Китай



Кіностудія / кінокомпанія: Paramount Pictures, Cruise/Wagner Productions, MI 3 Film
Режисер: Джей Джей Абрамс / J.J. Abrams
Актори: Том Круз / Tom Cruise, Філіп Сеймур Гофмен / Philip Seymour Hoffman, Вінґ Реймс / Ving Rhames, Біллі Крудап / Billy Crudup, Мішель Монаґан / Michelle Monaghan, Джонатан Різ Меєрс / Jonathan Rhys Meyers, Кері Рассел / Keri Russell, Меґґі К'ю / Maggie Q, Саймон Пеґ / Simon Pegg, Едді Марсан / Eddie Marsan, Лоуренс Фішберн / Laurence Fishburne та інші

Сюжет:
Таємний агент Ітан Хант повертається з новим спецзавданням. У його руках не тільки доля світу, а й життя коханої жінки. Вороги Ітана викрали його наречену, і тепер він повинен викрасти об'єкт під кодовою назвою "Кроляча лапка", щоб взамін отримати свою наречену. Але, як виявилось, "Кроляча лапка" була підробкою...


Рейтинг MPAA: PG-13 - дітям до 13 років перегляд не бажаний
Вікова категорія: 12+

Тривалість: 2:05:24
Якість: 720p
Відео:
кодек:
розмір кадру: 1280x546
бітрейт: 6277 кбіт/с [crf=18]

Аудіо # 1:
мова: українська
переклад: багатоголосий закадровий
ролі озвучили: Дмитро Терещук, Михайло Жонін, Світлана Шекера і Матвій Ніколаєв.
кодек: 2.0 (стерео)
бітрейт: 192 кбіт/с

Аудіо # 2:
мова: українська
переклад: багатоголосий закадровий - Так Треба Продакшн на замовлення ICTV
ролі озвучили: Дмитро Гаврилов, Олег Стальчук, Володимир Терещук і Олена Бліннікова
кодек: 2.0
бітрейт: 192 кбіт/с

Аудіо # 3:
мова: англійська
переклад: оригінал
кодек: 5.1
бітрейт: 1509 кбіт/с

Субтитри #1:
мова: українська
тип: програмні (м'які)
формат: *.srt

Субтитри #2:
мова: англійська
тип: програмні (м'які)
формат: *.srt

Збережено оригінальні розділи, як на Blu-ray
MediaInfo та x264log
Код:
General
Unique ID                   : 241653359228178229453557579188709067294 (0xB5CCBE7B5DF54F94BCA4F6C3103B8A1E)
Complete name               : Mission Impossible 3 (2006) [2xUkr,Eng sub.Ukr,Eng] 720p [Hurtom & HDClub].mkv
Format                      : Matroska
Format version              : Version 4 / Version 2
File size                   : 7.16 GiB
Duration                    : 2h 6mn
Overall bit rate            : 8 091 Kbps
Movie name                  : Місія: Нездійсненна 3 / Mission: Impossible III (2006) [2xUkr,Eng sub.Ukr,Eng] 720p [Hurtom & HDClub]
Encoded date                : UTC 2015-08-18 20:53:35
Writing application         : mkvmerge v8.3.0 ('Over the Horizon') 64bit
Writing library             : libebml v1.3.1 + libmatroska v1.4.2
Attachements                : cover.jpg / xlog.txt
DURATION                    : 02:06:10.855000000
NUMBER_OF_FRAMES            : 1225
NUMBER_OF_BYTES             : 72701
_STATISTICS_WRITING_APP     : mkvmerge v8.3.0 ('Over the Horizon') 64bit
_STATISTICS_WRITING_DATE_UT : 2015-08-18 20:53:35
_STATISTICS_TAGS            : BPS DURATION NUMBER_OF_FRAMES NUMBER_OF_BYTES

Video
ID                          : 1
Format                      : AVC
Format/Info                 : Advanced Video Codec
Format profile              : [email protected]
Format settings, CABAC      : Yes
Format settings, ReFrames   : 10 frames
Codec ID                    : V_MPEG4/ISO/AVC
Duration                    : 2h 6mn
Bit rate                    : 6 037 Kbps
Width                       : 1 280 pixels
Height                      : 546 pixels
Display aspect ratio        : 2.35:1
Frame rate mode             : Constant
Frame rate                  : 23.976 fps
Color space                 : YUV
Chroma subsampling          : 4:2:0
Bit depth                   : 8 bits
Scan type                   : Progressive
Bits/(Pixel*Frame)          : 0.360
Stream size                 : 5.34 GiB (75%)
Title                       : Місія: Нездійсненна 3 / Mission: Impossible III / Миссия: невыполнима 3 (2006) 720p [HDClub-Skazhutin]
Writing library             : core 122 r2183kMod c522ad1
Encoding settings           : cabac=1 / ref=10 / deblock=1:-3:-3 / analyse=0x3:0x113 / me=umh / subme=11 / psy=1 / fade_compensate=0.00 / psy_rd=1.00:0.00 / mixed_ref=1 / me_range=48 / chroma_me=1 / trellis=2 / 8x8dct=1 / cqm=0 / deadzone=21,11 / fast_pskip=1 / chroma_qp_offset=-2 / threads=12 / sliced_threads=0 / nr=0 / decimate=1 / interlaced=0 / bluray_compat=0 / constrained_intra=0 / bframes=11 / b_pyramid=2 / b_adapt=2 / b_bias=0 / direct=1 / weightb=1 / open_gop=0 / weightp=2 / keyint=250 / keyint_min=23 / scenecut=40 / intra_refresh=0 / rc_lookahead=60 / rc=crf / mbtree=1 / crf=18.0000 / qcomp=0.60 / qpmin=0 / qpmax=69 / qpstep=4 / vbv_maxrate=50000 / vbv_bufsize=62500 / crf_max=0.0 / nal_hrd=none / ip_ratio=1.40 / aq=3:0.80
Language                    : English
Default                     : Yes
Forced                      : No
Color range                 : Limited
Matrix coefficients         : BT.709
DURATION                    : 02:05:24.517000000
NUMBER_OF_FRAMES            : 180408
NUMBER_OF_BYTES             : 5904254991
_STATISTICS_WRITING_APP     : mkvmerge v8.3.0 ('Over the Horizon') 64bit
_STATISTICS_WRITING_DATE_UT : 2015-08-18 20:53:35
_STATISTICS_TAGS            : BPS DURATION NUMBER_OF_FRAMES NUMBER_OF_BYTES

Audio #1
ID                          : 2
Format                      : AC-3
Format/Info                 : Audio Coding 3
Mode extension              : CM (complete main)
Format settings, Endianness : Big
Codec ID                    : A_AC3
Duration                    : 2h 6mn
Bit rate mode               : Constant
Bit rate                    : 192 Kbps
Channel(s)                  : 2 channels
Channel positions           : Front: L R
Sampling rate               : 48.0 KHz
Compression mode            : Lossy
Delay relative to video     : 13ms
Stream size                 : 174 MiB (2%)
Title                       : MVO [Inter] 2.0 [stereo] 192 kbps [Hurtom-BILko,xslim]
Language                    : Ukrainian
Default                     : Yes
Forced                      : No

Audio #2
ID                          : 3
Format                      : AC-3
Format/Info                 : Audio Coding 3
Mode extension              : CM (complete main)
Format settings, Endianness : Big
Codec ID                    : A_AC3
Duration                    : 2h 6mn
Bit rate mode               : Constant
Bit rate                    : 192 Kbps
Channel(s)                  : 2 channels
Channel positions           : Front: L R
Sampling rate               : 48.0 KHz
Compression mode            : Lossy
Delay relative to video     : 13ms
Stream size                 : 174 MiB (2%)
Title                       : MVO [TTP-ICTV] 2.0 192 kbps [Hurtom-BILko,xslim]
Language                    : Ukrainian
Default                     : No
Forced                      : No

Audio #3
ID                          : 4
Format                      :
Format/Info                 : Digital Theater Systems
Mode                        : 16
Format settings, Endianness : Big
Codec ID                    : A_DTS
Duration                    : 2h 6mn
Bit rate mode               : Constant
Bit rate                    : 1 509 Kbps
Channel(s)                  : 6 channels
Channel positions           : Front: L C R, Side: L R, LFE
Sampling rate               : 48.0 KHz
Bit depth                   : 24 bits
Compression mode            : Lossy
Stream size                 : 1.34 GiB (19%)
Title                       : Original 5.1 1509 kbps
Language                    : English
Default                     : No
Forced                      : No

Text #1
ID                          : 5
Format                      : UTF-8
Codec ID                    : S_TEXT/UTF8
Codec ID/Info               : UTF-8 Plain Text
Title                       : Ukr full [Blu-ray CEE, antikillW]
Language                    : Ukrainian
Default                     : No
Forced                      : No

Text #2
ID                          : 6
Format                      : UTF-8
Codec ID                    : S_TEXT/UTF8
Codec ID/Info               : UTF-8 Plain Text
Title                       : Eng full
Language                    : English
Default                     : No
Forced                      : No

Menu
00:00:00.000                : en:Count to Ten
00:04:02.448                : en:Engagement Party
00:12:57.859                : en:Agent Lindsey Farris
00:21:18.067                : en:Chopper Chase
00:26:32.297                : en:Intelligence
00:32:56.472                : en:Trust and Understanding
00:39:30.492                : en:The Vatican
00:46:56.438                : en:Finding Davian
00:51:44.309                : en:Indentity Theft
00:57:34.867                : en:Dangerous Cargo
01:02:08.974                : en:Bridge Attack
01:09:06.640                : en:The Tables Turn
01:18:19.234                : en:Shanghai
01:23:31.381                : en:Skyscraper
01:27:35.082                : en:Night Flight
01:34:08.015                : en:It's Complicated
01:42:43.448                : en:Mobile Navigator
01:51:10.828                : en:Point and Shoot
01:57:27.832                : en:Mission: Honeymoon


Код:
y4m [info]: 1280x546p 1:1 @ 24000/1001 fps (cfr)
[info]: using SAR=1/1
[info]: using cpu capabilities: MMX2 SSE2Fast SSSE3 FastShuffle SSE4.2 AVX
[info]: profile High, level 4.1
[info]: frame I:1264  Avg QP:15.92  size:124956
[info]: frame P:43996 Avg QP:20.35  size: 50332
[info]: frame B:135148 Avg QP:22.47  size: 26135
[info]: consecutive B-frames:  4.0%  5.0% 10.2% 24.6% 14.7% 25.0%  5.4%  3.4%  2.7%  2.0%  1.2%  1.8%
[info]: mb I  I16..4: 18.7% 63.6% 17.6%
[info]: mb P  I16..4:  3.6% 20.3%  2.3%  P16..4: 22.7% 27.0%  8.8%  0.0%  0.0%    skip:15.4%
[info]: mb B  I16..4:  0.4%  4.8%  0.4%  B16..8: 34.5% 19.3%  4.6%  direct: 7.1%  skip:28.9%  L0:44.5% L1:43.5% BI:11.9%
[info]: 8x8 transform intra:79.6% inter:61.4%
[info]: coded y,uvDC,uvAC intra: 81.6% 83.8% 64.8% inter: 40.1% 34.6% 11.4%
[info]: i16 v,h,dc,p: 75% 10%  5% 11%
[info]: i8 v,h,dc,ddl,ddr,vr,hd,vl,hu: 11%  7%  9% 10% 14% 13% 13% 11% 12%
[info]: i4 v,h,dc,ddl,ddr,vr,hd,vl,hu: 26%  7%  9%  7% 11% 11% 10%  9% 10%
[info]: i8c dc,h,v,p: 41% 20% 16% 23%
[info]: Weighted P-Frames: Y:2.7% UV:1.6%
[info]: ref P L0: 43.5% 10.2% 18.8%  7.4%  6.0%  4.1%  3.7%  2.1%  2.0%  1.7%  0.4%  0.0%
[info]: ref B L0: 71.4% 12.5%  6.1%  3.3%  2.3%  1.9%  1.5%  0.6%  0.2%
[info]: ref B L1: 92.6%  7.4%
[info]: kb/s:6277.51

encoded 180408 frames, 6.66 fps, 6277.51 kb/s
[info]: ended at Mon Mar 12 05:27:14 2012
Ріп<----------> Оригінал







Джерела та подяки: &
ріп відео, оригінальні звук та субтитри - Skazhutin (HDClub); українська доріжка - BILko - зведення, xslim та BILko - запис з ТБ; українські субтитри - Blu-ray CEE, обробка - antikillW (HQ-VIDEO); українізований постер - Gelios; фільмографії акторів та інформація про озвучення - Віктор (всі - Гуртом).
Місія неможлива: Протокол Фантом / Mission: Impossible - Ghost Protocol (2011) 720p Ukr/Eng | Sub Ukr/Eng

Місія неможлива: Протокол Фантом / Mission: Impossible - Ghost Protocol (2011) 720p Ukr/Eng | Sub Ukr/Eng



Альтернативні постери





Місія нездійсненна. Колекція / Mission: Impossible. Collection (1996, 2000, 2006, 2011, 2015) 720p Ukr/Eng | Sub Ukr/Eng
повнорозмірні зображення відкриються по кліку (з натиснутим CTRL чи кліком середньою кнопкою мишки - у іншій вкладці)


Жанр: екшн, пригодницький, трилер
Країна: США, ОАЕ



Кіностудія / кінокомпанія: Paramount Pictures, Skydance Productions, Bad Robot, FilmWorks, Stillking Films, TC Productions; мейджор – Universal Pictures International
Режисер: Бред Берд / Brad Bird
Актори: Том Круз / Tom Cruise, Джеремі Реннер / Jeremy Renner, Саймон Пеґ / Simon Pegg, Пола Петтон / Paula Patton, Мікаел Нюквіст / Michael Nyqvist, Самулі Едельманн / Samuli Edelmann, Аніл Капур / Anil Kapoor, Леа Сейду / Léa Seydoux, Володимир Машков, Іван Шведов та інші

Сюжет:
Коли агент спецпідрозділу «Місія нездійсненна» Ітан Хант зі своїми напарниками виявляються втягнуті в чергову змову вселенського масштабу, президент дає добро на виконання протоколу «Фантом», суть якого в ліквідації наших героїв. А вся ця каша почалася з чималого підриву Кремля. Тепер Ітану належить виконати чергову нездійсненну місію, врятувати людство і повернути собі добре ім'я.


Рейтинг MPAA: PG-13 - дітям до 13 років перегляд не бажаний
Вікова категорія: 12+

Тривалість: 02:12:56
Якість: 720p
Відео:
кодек:
розмір кадру: 1280x534
бітрейт: 5560 кбіт/с [crf=16.5]

Аудіо # 1: &
мова: українська
переклад: професійний дубльований - студія LeDoyen
кодек: 5.1
бітрейт: 1509 кб/с
примітки:
Прагматик (HDClub) написано:
Доріжка отримана з оригінальної Dolby TrueHD доріжки та дубльованої шляхом заміни всіх ділянок з англійською мовою, її ехом та відголосками на аналогічні з дубльованої доріжки, у всіх каналах. Зібрана мною.

igor911 написано:
Доріжка отримана з формату -HD MA 7.1, ~4985 кбіт/с виокремленням ядра
Інформація про дубляж

Переклад і адаптація: Федір Сидорук
Режисер дубляжу: Ольга Фокіна
Ролі дублювали: Ітан Гант — Андрій Самінін, Джейн Картер — Лілія Ребрик, Бенджі Дан — Дмитро Завадський, Вільям Брандт — Роман Чорний, Гендрікс — Максим Кондратюк, Сабін Моро — Юлія Перенчук, Анатолій Сидоров — Михайло Кукуюк, Катерина Башкіна-Зленко, Вінґ Реймз — Олександр Бондаренко, Катерина Брайковська, Дмитро Гаврилов, Том Вілкінсон — Олександр Ігнатуша, Джош Голловей — Борис Георгієвський, В’ячеслав Дудко, Микола Карцев, Михайло Кришталь, Наталя Лук’янець, Іван Марченко, Андрій Мостренко, Юрій Ребрик, Петро Сова, Сергій Солопай, Ігор Тимошенко, Андрій Федінчик, Леонід — Роман Чупіс, Юрій Гребельник, Катерина Буцька, Михайло Войчук, титри — Ігор Волков, Вікторія Хмельницька, Мар’яна Щербак, Санджай Кумар Раджанс та інші.
Аудіо # 2:
мова: англійська
переклад: оригінал
кодек: 5.1
бітрейт: 1509 кбіт/с

Субтитри # 1 - 2:
мова: українська (форсовані, повні)
тип: програмні (м'які)
формат: *.srt
примітки:
igor911 написано:
у субтитрах мною виправлені численні помилки при розпізнаванні


Субтитри # 3 - 5:
мова: англійська (форсовані, повні, SDH)
тип: програмні (м'які)
формат: *.srt

Збережено оригінальні розділи, як на Blu-ray
MediaInfo
Код:
General
Unique ID                   : 204462535342365014662021187411129282892 (0x99D20D4B6C6290188662FCBFD86A314C)
Complete name               : Mission Impossible 4 Ghost Protocol (2011) [Ukr,Eng sub.Ukr,Eng] 720p [Hurtom & HDClub].mkv
Format                      : Matroska
Format version              : Version 4 / Version 2
File size                   : 8.13 GiB
Duration                    : 2h 12mn
Overall bit rate            : 8 752 Kbps
Movie name                  : Місія: Неможлива - Протокол Фантом / Mission: Impossible - Ghost Protocol (2011) [Ukr,Eng sub.Ukr,Eng] 1080p [Hurtom & HDClub]
Encoded date                : UTC 2015-08-18 22:26:49
Writing application         : mkvmerge v8.3.0 ('Over the Horizon') 64bit
Writing library             : libebml v1.3.1 + libmatroska v1.4.2
Attachements                : cover.jpg
DURATION                    : 02:11:59.040000000
NUMBER_OF_FRAMES            : 1299
NUMBER_OF_BYTES             : 61804
_STATISTICS_WRITING_APP     : mkvmerge v8.3.0 ('Over the Horizon') 64bit
_STATISTICS_WRITING_DATE_UT : 2015-08-18 22:26:49
_STATISTICS_TAGS            : BPS DURATION NUMBER_OF_FRAMES NUMBER_OF_BYTES

Video
ID                          : 1
Format                      : AVC
Format/Info                 : Advanced Video Codec
Format profile              : [email protected]
Format settings, CABAC      : Yes
Format settings, ReFrames   : 12 frames
Codec ID                    : V_MPEG4/ISO/AVC
Duration                    : 2h 12mn
Bit rate                    : 5 560 Kbps
Width                       : 1 280 pixels
Height                      : 534 pixels
Display aspect ratio        : 2.40:1
Frame rate mode             : Constant
Frame rate                  : 23.976 fps
Color space                 : YUV
Chroma subsampling          : 4:2:0
Bit depth                   : 8 bits
Scan type                   : Progressive
Bits/(Pixel*Frame)          : 0.339
Stream size                 : 5.16 GiB (64%)
Title                       : Місія: Неможлива - Протокол Фантом / Mission: Impossible - Ghost Protocol / Миссия невыполнима: Протокол Фантом (2011) 720p [HDClub-Neofilm]
Writing library             : core 122 r2184 5c85e0a
Encoding settings           : cabac=1 / ref=12 / deblock=1:-3:-3 / analyse=0x3:0x113 / me=esa / subme=10 / psy=1 / psy_rd=1.05:0.10 / mixed_ref=1 / me_range=24 / chroma_me=1 / trellis=2 / 8x8dct=1 / cqm=0 / deadzone=21,11 / fast_pskip=0 / chroma_qp_offset=-3 / threads=6 / sliced_threads=0 / nr=0 / decimate=0 / interlaced=0 / bluray_compat=0 / constrained_intra=0 / bframes=7 / b_pyramid=2 / b_adapt=2 / b_bias=0 / direct=3 / weightb=1 / open_gop=0 / weightp=2 / keyint=250 / keyint_min=23 / scenecut=40 / intra_refresh=0 / rc_lookahead=60 / rc=crf / mbtree=0 / crf=16.5 / qcomp=0.60 / qpmin=0 / qpmax=69 / qpstep=4 / vbv_maxrate=40000 / vbv_bufsize=30000 / crf_max=0.0 / nal_hrd=none / ip_ratio=1.40 / pb_ratio=1.30 / aq=1:0.75 / zones=181850,191238,b=0.3
Language                    : English
Default                     : Yes
Forced                      : No
Color range                 : Limited
Color primaries             : BT.709
Transfer characteristics    : BT.709
Matrix coefficients         : BT.709
DURATION                    : 02:12:56.219000000
NUMBER_OF_FRAMES            : 191238
NUMBER_OF_BYTES             : 5713364054
_STATISTICS_WRITING_APP     : mkvmerge v8.3.0 ('Over the Horizon') 64bit
_STATISTICS_WRITING_DATE_UT : 2015-08-18 22:26:49
_STATISTICS_TAGS            : BPS DURATION NUMBER_OF_FRAMES NUMBER_OF_BYTES

Audio #1
ID                          : 2
Format                      :
Format/Info                 : Digital Theater Systems
Mode                        : 16
Format settings, Endianness : Big
Codec ID                    : A_DTS
Duration                    : 2h 12mn
Bit rate mode               : Constant
Bit rate                    : 1 509 Kbps
Channel(s)                  : 6 channels
Channel positions           : Front: L C R, Side: L R, LFE
Sampling rate               : 48.0 KHz
Bit depth                   : 24 bits
Compression mode            : Lossy
Stream size                 : 1.40 GiB (17%)
Title                       : Dub [LeDoyen] 5.1 1509 kbps [HDClub-Прагматик]
Language                    : Ukrainian
Default                     : Yes
Forced                      : No

Audio #2
ID                          : 3
Format                      :
Format/Info                 : Digital Theater Systems
Mode                        : 16
Format settings, Endianness : Big
Codec ID                    : A_DTS
Duration                    : 2h 12mn
Bit rate mode               : Constant
Bit rate                    : 1 509 Kbps
Channel(s)                  : 6 channels
Channel positions           : Front: L C R, Side: L R, LFE
Sampling rate               : 48.0 KHz
Bit depth                   : 24 bits
Compression mode            : Lossy
Stream size                 : 1.40 GiB (17%)
Title                       : Original 5.1 1509 kbps
Language                    : English
Default                     : No
Forced                      : No

Text #1
ID                          : 4
Format                      : UTF-8
Codec ID                    : S_TEXT/UTF8
Codec ID/Info               : UTF-8 Plain Text
Title                       : Ukr forced [for dialogue in Russian]
Language                    : Ukrainian
Default                     : No
Forced                      : No

Text #2
ID                          : 5
Format                      : UTF-8
Codec ID                    : S_TEXT/UTF8
Codec ID/Info               : UTF-8 Plain Text
Title                       : Ukr full
Language                    : Ukrainian
Default                     : No
Forced                      : No

Text #3
ID                          : 6
Format                      : UTF-8
Codec ID                    : S_TEXT/UTF8
Codec ID/Info               : UTF-8 Plain Text
Title                       : Eng forced
Language                    : English
Default                     : No
Forced                      : No

Text #4
ID                          : 7
Format                      : UTF-8
Codec ID                    : S_TEXT/UTF8
Codec ID/Info               : UTF-8 Plain Text
Title                       : Eng full
Language                    : English
Default                     : No
Forced                      : No

Text #5
ID                          : 8
Format                      : UTF-8
Codec ID                    : S_TEXT/UTF8
Codec ID/Info               : UTF-8 Plain Text
Title                       : Eng SDH
Language                    : English
Default                     : No
Forced                      : No

Menu
00:00:00.000                : en:Chapter 01
00:04:41.907                : en:Chapter 02
00:11:28.897                : en:Chapter 03
00:20:01.951                : en:Chapter 04
00:27:35.320                : en:Chapter 05
00:33:28.173                : en:Chapter 06
00:38:18.087                : en:Chapter 07
00:44:46.100                : en:Chapter 08
00:51:37.219                : en:Chapter 09
00:56:05.153                : en:Chapter 10
01:02:50.183                : en:Chapter 11
01:09:17.820                : en:Chapter 12
01:16:32.379                : en:Chapter 13
01:22:18.517                : en:Chapter 14
01:31:17.055                : en:Chapter 15
01:35:57.377                : en:Chapter 16
01:42:49.914                : en:Chapter 17
01:51:01.780                : en:Chapter 18
01:58:26.391                : en:Chapter 19
02:05:58.843                : en:Chapter 20




Джерела та подяки: &
ріп відео, оригінальні звук та субтитри - Neofilm (HDClub); українська доріжка - DVD R5, Blu-ray CEE,Прагматик (HDClub); українські субтитри - Blu-ray CEE, обробка та редагування - igor911; українізований постер - Gelios; фільмографії акторів та інформація про озвучення - Віктор (всі - Гуртом).
Місія: Неможлива - Нація ізгоїв / Mission: Impossible - Rogue Nation (2015) 720p Ukr/Eng | Sub Ukr/Eng

Місія: Неможлива - Нація ізгоїв / Mission: Impossible - Rogue Nation (2015) 720p Ukr/Eng | Sub Ukr/Eng



Альтернативні постери


повнорозмірні зображення відкриються по кліку (з натиснутим CTRL чи кліком середньою кнопкою мишки - у іншій вкладці)


Жанр: екшн, пригодницький, трилер
Країна: США, Гонконг, Китай



Кіностудія / кінокомпанія: Paramount Pictures, Skydance Productions, Bad Robot, China Movie Channel, Alibaba Pictures Group, Odin, TC Productions
Режисер: Крістофер МакКворрі / Christopher McQuarrie
Актори: Том Круз / Tom Cruise, Джеремі Реннер / Jeremy Renner, Саймон Пеґ / Simon Pegg, Ребекка Ферґюсон / Rebecca Ferguson, Алек Болдвін / Alec Baldwin, Амеріка Оліво / America Olivo, Вінґ Реймз / Ving Rhames, Шон Гарріс / Sean Harris, Саймон МакБерні / Simon McBurney, Ґерміона Корфілд / Hermione Corfield, Єнс Гультен / Jens Hultén та інші

Сюжет:
Коли Місію розпускають, та Ітан Гант залишається не при справах, його команда несподівано стикається з розгалуженою міжнародною мережею високопрофесійних спецагентів - Синдикатом. Це "плем'я ізгоїв" одержиме ідеєю встановлення нового світового порядку і планує серію руйнівних терактів. Ітан і компанія об'єднуються з дискредитованим британським агентом Ілсою Фауст та приступають до своєї найнездійсненнішої місії, розуміючи, що кожен з них може виявитися на стороні Синдикату.


Рейтинг MPAA: PG-13 - дітям до 13 років перегляд не бажаний
Вікова категорія: 12+

Тривалість: 02:11:33
Якість: 720p
Відео:
кодек:
розмір кадру: 1280x536
бітрейт: 6823 кбіт/с [crf=17.5]

Аудіо # 1:
мова: українська
переклад: професійний дубльований - LeDoyen Studio
кодек: 5.1
бітрейт: 448 кбіт/с
Інформація про дубляж

Переклад: Федір Сидорук
Режисер дубляжу: Ольга Фокіна
Ролі дублювали: Ітан Гант – Андрій Самінін, Ільза – Юлія Перенчук, Ганлі – Микола Боклан, Брандт – Роман Чорний, Лютер – Борис Георгієвський, Бенджі – Дмитро Завадський, Етлі – Андрій Альохін, Агент ЦРУ-1 – Кирило Нікітенко, Прем'єр-міністр – Олег Лепенець, Голова – Володимир Нечепоренко, Продавчиня – Олена Борозенець, Язик – Володимир Паляниця, Лорен – Катерина Качан, Лейн – Олексій Семенов; а також: Сергій Солопай, Денис Толяренко, Дмитро Бузинський, Олександр Чернов, Аліна Проценко, Катерина Башкіна-Зленко.

Фільм надано компанією Paramount Pictures на замовлення B&H Film Distribution, дубльовано студією LeDoyen Studio.
Аудіо # 2:
мова: англійська
переклад: оригінал
кодек: 5.1
бітрейт: 640 кбіт/с

Субтитри # 1-2:
мова: українська (форсовані, повні)
тип: програмні (м'які)
формат: *.srt

Субтитри # 3-4:
мова: англійська (форсовані, повні)
тип: програмні (м'які)
формат: *.srt

Збережено оригінальні розділи, як на Blu-ray
MediaInfo
Код:
General
Unique ID                   : 230431538413146219704649439904252270185 (0xAD5B7FFFBEBAD1179B064AC14BCB9669)
Complete name               : Mission Impossible 5 Rogue Nation (2015) [Ukr,Eng sub.Ukr,Eng] 720p [Hurtom].mkv
Format                      : Matroska
Format version              : Version 4 / Version 2
File size                   : 7.41 GiB
Duration                    : 2h 11mn
Overall bit rate            : 8 067 Kbps
Movie name                  : Місія: Неможлива - Нація ізгоїв / Mission: Impossible - Rogue Nation (2015) [Ukr,Eng sub.Ukr,Eng] 720p [Hurtom-igor911]
Encoded date                : UTC 2015-11-29 11:36:41
Writing application         : mkvmerge v8.6.0 ('A Place In Your World') 64bit
Writing library             : libebml v1.3.3 + libmatroska v1.4.4
Attachements                : cover.jpg
DURATION                    : 01:53:29.980000000
NUMBER_OF_FRAMES            : 22
NUMBER_OF_BYTES             : 650
_STATISTICS_WRITING_APP     : mkvmerge v8.6.0 ('A Place In Your World') 64bit
_STATISTICS_WRITING_DATE_UT : 2015-11-29 11:36:41
_STATISTICS_TAGS            : BPS DURATION NUMBER_OF_FRAMES NUMBER_OF_BYTES

Video
ID                          : 1
Format                      : AVC
Format/Info                 : Advanced Video Codec
Format profile              : [email protected]
Format settings, CABAC      : Yes
Format settings, ReFrames   : 9 frames
Codec ID                    : V_MPEG4/ISO/AVC
Duration                    : 2h 11mn
Bit rate                    : 6 818 Kbps
Width                       : 1 280 pixels
Height                      : 536 pixels
Display aspect ratio        : 2.40:1
Frame rate mode             : Constant
Frame rate                  : 23.976 fps
Color space                 : YUV
Chroma subsampling          : 4:2:0
Bit depth                   : 8 bits
Scan type                   : Progressive
Bits/(Pixel*Frame)          : 0.414
Stream size                 : 6.27 GiB (85%)
Title                       : Місія: Неможлива - Нація ізгоїв / Mission: Impossible - Rogue Nation (2015) 720p
Writing library             : core 142 r2431+42 c69a006 tMod [[email protected]:2:0 X86_64]
Encoding settings           : cabac=1 / ref=9 / deblock=1:-3:-3 / analyse=0x3:0x113 / me=umh / subme=11 / psy=1 / fade_compensate=0.00 / psy_rd=1.00:0.05 / mixed_ref=1 / me_range=32 / chroma_me=1 / trellis=2 / 8x8dct=1 / cqm=0 / deadzone=21,11 / fast_pskip=0 / chroma_qp_offset=-2 / threads=12 / lookahead_threads=2 / sliced_threads=0 / nr=0 / decimate=1 / interlaced=0 / bluray_compat=0 / constrained_intra=0 / fgo=0 / bframes=8 / b_pyramid=2 / b_adapt=2 / b_bias=0 / direct=3 / weightb=1 / open_gop=0 / weightp=2 / keyint=250 / keyint_min=23 / scenecut=40 / intra_refresh=0 / rc_lookahead=40 / rc=crf / mbtree=0 / crf=17.5000 / qcomp=0.60 / qpmin=0:0:0 / qpmax=69:69:69 / qpstep=4 / vbv_maxrate=30000 / vbv_bufsize=30000 / crf_max=0.0 / nal_hrd=none / filler=0 / ip_ratio=1.40 / pb_ratio=1.30 / aq=3:1.00 / aq-sensitivity=10.00 / aq-factor=1.00:1.00:1.00 / aq2=0 / aq3=0
Language                    : English
Default                     : Yes
Forced                      : No
Color range                 : Limited
Matrix coefficients         : BT.709
DURATION                    : 02:11:33.803000000
NUMBER_OF_FRAMES            : 189262
NUMBER_OF_BYTES             : 6883615532
_STATISTICS_WRITING_APP     : mkvmerge v8.6.0 ('A Place In Your World') 64bit
_STATISTICS_WRITING_DATE_UT : 2015-11-29 11:36:41
_STATISTICS_TAGS            : BPS DURATION NUMBER_OF_FRAMES NUMBER_OF_BYTES

Audio #1
ID                          : 2
Format                      : AC-3
Format/Info                 : Audio Coding 3
Mode extension              : CM (complete main)
Format settings, Endianness : Big
Codec ID                    : A_AC3
Duration                    : 2h 11mn
Bit rate mode               : Constant
Bit rate                    : 448 Kbps
Channel(s)                  : 6 channels
Channel positions           : Front: L C R, Side: L R, LFE
Sampling rate               : 48.0 KHz
Compression mode            : Lossy
Stream size                 : 422 MiB (6%)
Title                       : Dub [DVD,LeDoyen] 5.1 448 kbps [Hurtom]
Language                    : Ukrainian
Default                     : Yes
Forced                      : No

Audio #2
ID                          : 3
Format                      : AC-3
Format/Info                 : Audio Coding 3
Mode extension              : CM (complete main)
Format settings, Endianness : Big
Codec ID                    : A_AC3
Duration                    : 2h 11mn
Bit rate mode               : Constant
Bit rate                    : 640 Kbps
Channel(s)                  : 6 channels
Channel positions           : Front: L C R, Side: L R, LFE
Sampling rate               : 48.0 KHz
Compression mode            : Lossy
Stream size                 : 602 MiB (8%)
Title                       : Original 5.1 640Kbps
Language                    : English
Default                     : No
Forced                      : No

Text #1
ID                          : 4
Format                      : UTF-8
Codec ID                    : S_TEXT/UTF8
Codec ID/Info               : UTF-8 Plain Text
Title                       : Ukr forced
Language                    : Ukrainian
Default                     : Yes
Forced                      : No

Text #2
ID                          : 5
Format                      : UTF-8
Codec ID                    : S_TEXT/UTF8
Codec ID/Info               : UTF-8 Plain Text
Title                       : Ukr full
Language                    : Ukrainian
Default                     : No
Forced                      : No

Text #3
ID                          : 6
Format                      : UTF-8
Codec ID                    : S_TEXT/UTF8
Codec ID/Info               : UTF-8 Plain Text
Title                       : Eng forced
Language                    : English
Default                     : No
Forced                      : No

Text #4
ID                          : 7
Format                      : UTF-8
Codec ID                    : S_TEXT/UTF8
Codec ID/Info               : UTF-8 Plain Text
Title                       : Eng full
Language                    : English
Default                     : No
Forced                      : No

Menu
00:00:00.000                : en:00:00:00.000
00:09:53.092                : en:00:09:53.092
00:20:45.703                : en:00:20:45.703
00:25:32.072                : en:00:25:32.072
00:32:00.669                : en:00:32:00.669
00:40:03.443                : en:00:40:03.443
00:49:35.556                : en:00:49:35.556
01:01:01.157                : en:01:01:01.157
01:09:51.687                : en:01:09:51.687
01:20:20.858                : en:01:20:20.858
01:29:29.322                : en:01:29:29.322
01:38:32.824                : en:01:38:32.824
01:48:19.410                : en:01:48:19.410
01:57:13.944                : en:01:57:13.944
02:03:02.709                : en:02:03:02.709




Джерела та подяки:


УВАГА!
29.11.2015 реліз оновлено - тепер якісний ліцензійний звук та субтитри до п'ятої частини



Повна колекція "Місій" у іншій якості:

1080p
<----------> AVC<----------> (avi)


ЗАЛИШАЙТЕСЬ ЯКОМОГА ДОВШЕ НА РОЗДАЧІ!

СКАЧАВ САМ - ДАЙ СКАЧАТИ ІНШИМ


Золотий реліз (завантажене не впливає на рейтинг)
 Трекер:    Зареєстрований   

Завантажити / скачати фільм українською



відео для новачків



 Зареєстрований:   2015-11-29 15:56
 Розмір:   34.59 GB 
 Оцінка фільму:   7.5/10 (Голосів: 41)
   
Anonymous 







2015-11-03 10:30  
Реліз оновлено - додав п'яту частину. При появі кращого звуку (з ліцензії) реліз буде оновлено.
Anonymous 







2015-11-29 15:59  
Реліз оновлено - замінено звук до п'ятої частини на ліцензію та додано українські субтитри.
Ваш часовий пояс: GMT + 2 Години

Нова тема   Відповісти