Завантажити та скачати торренти українською


Контрабанда.com.ua - КОНТРАБАНДА.Com.Ua (2006) [FLAC] | Pop Rock

Нові коментарі

Нова тема   Відповісти
Останній раз роздавалося Myfordownloads (2016-10-05)
Автор Повідомлення
rudsky 
Новенький


З нами з: 16.08.08
Востаннє: 07.12.16
Повідомлень: 24

2009-08-06 00:33  
Контрабанда.com.ua - КОНТРАБАНДА.Com.Ua (2006) [FLAC] | Pop Rock



Стиль: Pop Rock
Країна, місто: Україна, Херсон
Сайти: Офіційний сайт
Видавець: Comp Music/EMI
Виконавці:
Ольга Цепкало (вокал)
Роман Бабич (бас)
Андрій Криворучко (гітара)
Віктор Голяк (гітара)
Денис Сидоренко (ударні)
Пісні:
    1. Розумієш... - 4:11
    2. Тебе не тримаю - 3:42
    3. Тобі я все віддаю - 3:17
    4. Досить - 4:07
    5. Озирнись - 3:43
    6. Різдв’яна - 2:41
    7. Runaway - 3:58
    8. Dreaming - 4:48
    9. Blues (Lullabay) - 4:29
    10. Move on - 4:54
EAC Log

Exact Audio Copy V0.99 prebeta 5 from 4. May 2009

EAC extraction logfile from 3. August 2009, 18:43

Контрабанда.com.ua / Contrabanda.com.ua

Used drive : Optiarc DVD RW AD-7540A Adapter: 1 ID: 0

Read mode : Secure
Utilize accurate stream : Yes
Defeat audio cache : Yes
Make use of C2 pointers : No

Read offset correction : 48
Overread into Lead-In and Lead-Out : Yes
Fill up missing offset samples with silence : Yes
Delete leading and trailing silent blocks : No
Null samples used in CRC calculations : Yes
Used interface : Installed external ASPI interface
Gap handling : Appended to previous track

Used output format : User Defined Encoder
Selected bitrate : 1024 kBit/s
Quality : High
Add ID3 tag : Yes
Command line compressor : C:\Program Files\Exact Audio Copy\FLAC\FLAC.EXE
Additional command line options : -8 -V -T "ARTIST=%a" -T "TITLE=%t" -T "ALBUM=%g" -T "DATE=%y" -T "TRACKNUMBER=%n" -T "GENRE=%m" -T "COMMENT=%e" %s -o %d

TOC of the extracted CD

Track | Start | Length | Start sector | End sector
---------------------------------------------------------
1 | 0:00.00 | 4:11.15 | 0 | 18839
2 | 4:11.15 | 3:43.03 | 18840 | 35567
3 | 7:54.18 | 3:16.59 | 35568 | 50326
4 | 11:11.02 | 4:07.28 | 50327 | 68879
5 | 15:18.30 | 3:42.58 | 68880 | 85587
6 | 19:01.13 | 2:40.44 | 85588 | 97631
7 | 21:41.57 | 3:58.31 | 97632 | 115512
8 | 25:40.13 | 4:47.51 | 115513 | 137088
9 | 30:27.64 | 4:28.52 | 137089 | 157240
10 | 34:56.41 | 4:54.30 | 157241 | 179320

Track 1

Filename Z:\home\buba\Tmp\Контрабанда.com.ua\Contrabanda.com.ua\01 - Розумієш....wav

Pre-gap length 0:00:02.00

Peak level 97.7 %
Track quality 100.0 %
Test CRC 4F6415C4
Copy CRC 4F6415C4
Accurately ripped (confidence 1) [21BD85DA]
Copy OK

Track 2

Filename Z:\home\buba\Tmp\Контрабанда.com.ua\Contrabanda.com.ua\02 - Тебе не тримаю.wav

Pre-gap length 0:00:02.00

Peak level 97.7 %
Track quality 100.0 %
Test CRC 8122E328
Copy CRC 8122E328
Accurately ripped (confidence 1) [47EF682A]
Copy OK

Track 3

Filename Z:\home\buba\Tmp\Контрабанда.com.ua\Contrabanda.com.ua\03 - Тобі я все віддаю.wav

Pre-gap length 0:00:02.00

Peak level 97.7 %
Track quality 100.0 %
Test CRC F4833A87
Copy CRC F4833A87
Accurately ripped (confidence 1) [55685F66]
Copy OK

Track 4

Filename Z:\home\buba\Tmp\Контрабанда.com.ua\Contrabanda.com.ua\04 - Досить.wav

Pre-gap length 0:00:02.00

Peak level 97.7 %
Track quality 99.9 %
Test CRC E2702B4E
Copy CRC E2702B4E
Accurately ripped (confidence 1) [F521FE45]
Copy OK

Track 5

Filename Z:\home\buba\Tmp\Контрабанда.com.ua\Contrabanda.com.ua\05 - Озирнись.wav

Pre-gap length 0:00:02.00

Peak level 97.7 %
Track quality 100.0 %
Test CRC C1565791
Copy CRC C1565791
Accurately ripped (confidence 1) [71E15DFF]
Copy OK

Track 6

Filename Z:\home\buba\Tmp\Контрабанда.com.ua\Contrabanda.com.ua\06 - Різдв'яна.wav

Pre-gap length 0:00:02.00

Peak level 97.7 %
Track quality 100.0 %
Test CRC 42490CCA
Copy CRC 42490CCA
Accurately ripped (confidence 1) [5AE0A99C]
Copy OK

Track 7

Filename Z:\home\buba\Tmp\Контрабанда.com.ua\Contrabanda.com.ua\07 - Runaway.wav

Pre-gap length 0:00:02.00

Peak level 97.7 %
Track quality 99.9 %
Test CRC BE44AF19
Copy CRC BE44AF19
Accurately ripped (confidence 1) [2BF33D18]
Copy OK

Track 8

Filename Z:\home\buba\Tmp\Контрабанда.com.ua\Contrabanda.com.ua\08 - Dreaming.wav

Pre-gap length 0:00:02.00

Peak level 97.7 %
Track quality 100.0 %
Test CRC 15B2CAFA
Copy CRC 15B2CAFA
Accurately ripped (confidence 1) [3F56433F]
Copy OK

Track 9

Filename Z:\home\buba\Tmp\Контрабанда.com.ua\Contrabanda.com.ua\09 - Blues (Lullabay).wav

Pre-gap length 0:00:02.00

Peak level 97.7 %
Track quality 100.0 %
Test CRC 74C0464A
Copy CRC 74C0464A
Accurately ripped (confidence 1) [66B5D512]
Copy OK

Track 10

Filename Z:\home\buba\Tmp\Контрабанда.com.ua\Contrabanda.com.ua\10 - Move on.wav

Pre-gap length 0:00:02.00

Peak level 97.7 %
Track quality 100.0 %
Test CRC 29A4F680
Copy CRC 29A4F680
Accurately ripped (confidence 1) [23482012]
Copy OK

All tracks accurately ripped

No errors occurred

End of status report
Тривалість: 00:39:52
Мова: українська (1-6), англійська (7-10)
Аудіо-кодек: FLAC
Бітрейт: ~901 кб/с
Джерело: Особистий CD
Додаткова інформація:

“Озирнись” – кавер-версія на легендарний хіт Боні Тайлер «Total Eclipse Of The Heart”.

Файли .cue та .log збережені в кодуванні UTF-8.

Якщо Ви справді бажаєте підтримати українське - після прослуховування, якщо музика вам сподобалась, придбайте ліцензійний диск. Підтримаймо вітчизняних виконавців!


Срібний реліз (на рейтинг впливає 50% завантаженого)
 Трекер:    Зареєстрований   

Завантажити / скачати українську музику



відео для новачків



 Зареєстрований:   2009-08-06 00:33
 Розмір:   266 MB 
 Оцінка музики:   9/10 (Голосів: 8)
   
petrok13 
Відео Гуртом - підтримка та поширення
Відео Гуртом - підтримка та поширення


З нами з: 29.11.08
Востаннє: 09.12.16
Повідомлень: 173

2009-08-07 23:36  
Не розумію чому, але в мене 24% вже добу і діль не йде Sad (1)
petrok13 
Відео Гуртом - підтримка та поширення
Відео Гуртом - підтримка та поширення


З нами з: 29.11.08
Востаннє: 09.12.16
Повідомлень: 173

2009-08-08 10:14  
Та ну його, краще вже МП3 завантажу
rudsky 
Новенький


З нами з: 16.08.08
Востаннє: 07.12.16
Повідомлень: 24

2009-08-08 17:05  
Я також не розумію чому в Вас не йде, я ніяких обмежень не встановлював.
bandera77 
VIP


З нами з: 14.03.09
Востаннє: 08.12.16
Повідомлень: 266

2009-08-20 09:03  
Хтомь станьте на роздачу - хочеться мати в гарній якості. ДЯкую
bot 
робот


З нами з: 30.09.07
Востаннє: 26.05.05
Повідомлень: 16030

2010-05-27 20:00  
Тему перенесено з Рок, Метал, Альтернатива, Панк, СКА до форуму Архів музики

Причина перенесення: роздача відсутня 3 місяці
Tarasyk

bot 
робот


З нами з: 30.09.07
Востаннє: 26.05.05
Повідомлень: 16030

2015-07-07 22:25  
Тему перенесено з Архів музики до форуму Рок, Метал, Альтернатива, Панк, СКА

Причина перенесення: може хтось стане на роздачу
ssTAss

ssTAss 
Модератор музики


З нами з: 05.07.08
Востаннє: 08.12.16
Повідомлень: 10948

2015-07-21 22:12  
дуже дякую всім, хто відгукнувся
хоч тут і кривий куе, але з нього куе-тулзом прекрасно робиться нормальний
bot написано:

Тему перенесено з Рок, Метал, Альтернатива, Панк, СКА до форуму Архів музики

Причина перенесення: роздача відсутня 3 місяці
Tarasyk


вкотре переконався, що не варто такі релізи переносити в архів, бо там вони і пропадають

Ваш часовий пояс: GMT + 2 Години

Нова тема   Відповісти