Завантажити та скачати торренти українською


Велика червона одиниця / The Big Red One (1980) 720p Ukr/Eng | Sub Eng

Нові коментарі

Нова тема   Відповісти
Автор Повідомлення
Anonymous 







2015-08-14 10:44  
Велика червона одиниця / The Big Red One (1980) 720p Ukr/Eng | Sub Eng



Альтернативний постер


повнорозмірні зображення відкриються по кліку (з натиснутим CTRL чи кліком середньою кнопкою мишки - у іншій вкладці)


Жанр: бойовик, драма, воєнний/військовий
Країна: США



Кінокомпанія: Lorimar Productions, Lorac Productions
Режисер: Семюел Фуллер / Samuel Fuller
Актори: Лі Марвін / Lee Marvin, Марк Геміл / Mark Hamill, Роберт Каредайн / Robert Carradine, Боббі Ді Чіко / Bobby Di Cicco, Келлі Ворд / Kelly Ward, Стефан Одран / Stéphane Audran, Зіґфрід Роч / Siegfried Rauch, Серж Маркан / Serge Marquand, Чарльз Макколей / Charles Macaulay, Ален Дуті / Alain Doutey та інші

Сюжет:
Епопея Семюела Фуллера про Другу Світову війну, що оповідає про битви, в яких брав участь перший піхотний дивізіон США. Четверо молодих необстріляних бійців під командуванням ветерана - сержанта, опиняються поруч з ворогом у сипучих пісках Північної Африки. Перш ніж вони стануть легендою, їм належить пройти суворі випробування...


Рейтинг MPAA: R - особам до 17 років обов'язкова присутність батьків або дорослого опікуна
Вікова категорія: 16+

Тривалість: 01:53:15
Якість: 720p
Відео:
кодек:
розмір кадру: 1280 х 720
бітрейт: 7066 кбіт/с [crf=20]

Аудіо # 1:
мова: українська
переклад: двоголосий закадровий - Студія 1+1
кодек: 2.0
бітрейт: 192 кбіт/с
Інформація про озвучення
Озвучено студією 1+1
Переклад: Ганна Ведмідь
Літературний редактор: Оксана Батюк
Звукорежисер: Віктор Коляда
Режисер: Ольга Чернілевська
Ролі озвучили: Олена Узлюк та Олександр Завальський
Аудіо # 2:
мова: англійська
переклад: оригінал
кодек: 2.0
бітрейт: 192 кбіт/с

Субтитри:
мова: англійська (повні, SDH)
тип: програмні (м'які)
формат: *.srt

Збережено оригінальні розділи, як на Blu-ray.
MediaInfo та log
Код:
General
Unique ID                   : 238594323682575786387753709221293198231 (0xB37F986292C46593A7D0AA48218A0B97)
Complete name               : The Big Red One (1980) [Ukr,Eng sub.Eng] 720p [Hurtom].mkv
Format                      : Matroska
Format version              : Version 4 / Version 2
File size                   : 6.01 GiB
Duration                    : 1h 53mn
Overall bit rate            : 7 601 Kbps
Movie name                  : Велика червона одиниця / The Big Red One (1980) [Ukr,Eng sub.Eng] 720p [Hurtom]
Encoded date                : UTC 2015-08-14 07:52:57
Writing application         : mkvmerge v8.2.0 ('World of Adventure') 64bit
Writing library             : libebml v1.3.1 + libmatroska v1.4.2
Attachements                : cover.jpg / x264log.txt
DURATION                    : 01:48:48.314000000
NUMBER_OF_FRAMES            : 722
NUMBER_OF_BYTES             : 28217
_STATISTICS_WRITING_APP     : mkvmerge v8.2.0 ('World of Adventure') 64bit
_STATISTICS_WRITING_DATE_UT : 2015-08-14 07:52:57
_STATISTICS_TAGS            : BPS DURATION NUMBER_OF_FRAMES NUMBER_OF_BYTES

Video
ID                          : 1
Format                      : AVC
Format/Info                 : Advanced Video Codec
Format profile              : [email protected]
Format settings, CABAC      : Yes
Format settings, ReFrames   : 9 frames
Codec ID                    : V_MPEG4/ISO/AVC
Duration                    : 1h 53mn
Bit rate                    : 7 066 Kbps
Width                       : 1 280 pixels
Height                      : 720 pixels
Display aspect ratio        : 16:9
Frame rate mode             : Constant
Frame rate                  : 23.976 fps
Color space                 : YUV
Chroma subsampling          : 4:2:0
Bit depth                   : 8 bits
Scan type                   : Progressive
Bits/(Pixel*Frame)          : 0.320
Stream size                 : 5.59 GiB (93%)
Title                       : Велика червона одиниця / The Big Red One / Большая красная единица (1980) 720p [STarankov]
Writing library             : core 138 r2358 9e941d1
Encoding settings           : cabac=1 / ref=9 / deblock=1:-1:-1 / analyse=0x3:0x113 / me=umh / subme=10 / psy=1 / psy_rd=1.00:0.15 / mixed_ref=1 / me_range=32 / chroma_me=1 / trellis=2 / 8x8dct=1 / cqm=0 / deadzone=21,11 / fast_pskip=0 / chroma_qp_offset=-3 / threads=6 / lookahead_threads=1 / sliced_threads=0 / nr=0 / decimate=1 / interlaced=0 / bluray_compat=0 / constrained_intra=0 / bframes=8 / b_pyramid=2 / b_adapt=2 / b_bias=0 / direct=1 / weightb=1 / open_gop=0 / weightp=2 / keyint=230 / keyint_min=23 / scenecut=40 / intra_refresh=0 / rc_lookahead=40 / rc=crf / mbtree=0 / crf=20.0 / qcomp=0.60 / qpmin=0 / qpmax=69 / qpstep=4 / vbv_maxrate=40000 / vbv_bufsize=50000 / crf_max=0.0 / nal_hrd=none / ip_ratio=1.40 / pb_ratio=1.30 / aq=1:1.00
Language                    : English
Default                     : Yes
Forced                      : No
DURATION                    : 01:53:15.914000000
NUMBER_OF_FRAMES            : 162939
NUMBER_OF_BYTES             : 6129799618
_STATISTICS_WRITING_APP     : mkvmerge v8.2.0 ('World of Adventure') 64bit
_STATISTICS_WRITING_DATE_UT : 2015-08-14 07:52:57
_STATISTICS_TAGS            : BPS DURATION NUMBER_OF_FRAMES NUMBER_OF_BYTES

Audio #1
ID                          : 2
Format                      : AC-3
Format/Info                 : Audio Coding 3
Mode extension              : CM (complete main)
Format settings, Endianness : Big
Codec ID                    : A_AC3
Duration                    : 1h 53mn
Bit rate mode               : Constant
Bit rate                    : 192 Kbps
Channel(s)                  : 2 channels
Channel positions           : Front: L R
Sampling rate               : 48.0 KHz
Compression mode            : Lossy
Stream size                 : 156 MiB (3%)
Title                       : DVO [1+1] 2.0 192 kbps [Hurtom-omm,Tanat13]
Language                    : Ukrainian
Default                     : Yes
Forced                      : No

Audio #2
ID                          : 3
Format                      : AC-3
Format/Info                 : Audio Coding 3
Mode extension              : CM (complete main)
Format settings, Endianness : Big
Codec ID                    : A_AC3
Duration                    : 1h 53mn
Bit rate mode               : Constant
Bit rate                    : 192 Kbps
Channel(s)                  : 2 channels
Channel positions           : Front: L R
Sampling rate               : 48.0 KHz
Compression mode            : Lossy
Stream size                 : 156 MiB (3%)
Title                       : Original 2.0 192 kbps
Language                    : English
Default                     : No
Forced                      : No

Text #1
ID                          : 4
Format                      : UTF-8
Codec ID                    : S_TEXT/UTF8
Codec ID/Info               : UTF-8 Plain Text
Language                    : English
Default                     : No
Forced                      : No

Text #2
ID                          : 5
Format                      : UTF-8
Codec ID                    : S_TEXT/UTF8
Codec ID/Info               : UTF-8 Plain Text
Title                       : SDH
Language                    : English
Default                     : No
Forced                      : No

Menu
00:00:00.000                : en:Credits
00:01:15.074                : en:1918: War's End
00:04:43.658                : en:His Wetnoses
00:07:29.323                : en:North Africa Beach
00:12:11.480                : en:Not Murder
00:16:51.301                : en:Digging In
00:21:56.273                : en:Sergeant of Arabia
00:26:20.245                : en:A Beach in Sicily
00:29:06.327                : en:Village Sniper
00:32:29.030                : en:Smitty Learns
00:34:59.013                : en:Help from the Navy
00:41:59.350                : en:The Big Gun
00:47:32.307                : en:In Their Sights
00:50:13.802                : en:Heroes for an Hour
00:52:51.001                : en:D-Day, Omaha Beach
00:57:43.209                : en:Bangalor Torpedo
01:03:43.694                : en:He Wrote the Book
01:05:59.163                : en:Into a Trap
01:10:03.407                : en:Sgt. Possum Strikes
01:14:22.040                : en:War Baby
01:19:16.710                : en:Asylum in Belgium
01:25:47.308                : en:Forest in Germany
01:32:07.104                : en:Last Big Blowout
01:35:39.191                : en:Czechoslovakia
01:38:17.558                : en:Trigger Effect
01:42:23.887                : en:Father Figure
01:48:50.565                : en:History Repeats...
01:51:30.683                : en:Coda/End Credits


Код:
raw  [info]: 1280x720p 1:1 @ 24000/1001 fps (cfr)
[info]: using SAR=1/1
[info]: using cpu capabilities: MMX2 SSE2Fast SSSE3 SSE4.2
[info]: profile High, level 4.1
[info]: frame I:1194 Avg QP:20.42 size:117935
[info]: frame P:31779 Avg QP:21.51 size: 68394
[info]: frame B:129966 Avg QP:23.49 size: 29358
[info]: consecutive B-frames: 1.2% 1.1% 2.6% 28.8% 13.2% 23.3% 8.4% 19.1% 2.1%
[info]: mb I I16..4: 6.1% 86.5% 7.4%
[info]: mb P I16..4: 0.6% 30.7% 1.0% P16..4: 31.4% 24.4% 10.0% 0.0% 0.0% skip: 1.9%
[info]: mb B I16..4: 0.0% 3.6% 0.1% B16..8: 45.6% 14.5% 4.6% direct: 9.3% skip:22.3% L0:44.6% L1:47.9% BI: 7.5%
[info]: 8x8 transform intra:95.1% inter:66.1%
[info]: coded y,uvDC,uvAC intra: 98.1% 84.9% 61.1% inter: 49.4% 31.9% 4.2%
[info]: i16 v,h,dc,p: 26% 7% 32% 36%
[info]: i8 v,h,dc,ddl,ddr,vr,hd,vl,hu: 6% 6% 12% 11% 14% 13% 13% 11% 13%
[info]: i4 v,h,dc,ddl,ddr,vr,hd,vl,hu: 6% 5% 2% 10% 17% 16% 17% 13% 14%
[info]: i8c dc,h,v,p: 50% 20% 15% 15%
[info]: Weighted P-Frames: Y:13.9% UV:6.8%
[info]: ref P L0: 39.8% 13.8% 19.9% 6.8% 6.4% 3.9% 4.2% 2.1% 2.6% 0.4% 0.0%
[info]: ref B L0: 74.6% 11.6% 5.3% 3.1% 2.1% 1.9% 1.0% 0.4%
[info]: ref B L1: 94.0% 6.0%
[info]: kb/s:7215.86
encoded 162939 frames, 4.08 fps, 7215.86 kb/s
Final statistics
Constant Quality Mode: Quality 20 computed...
Video Bitrate Obtained (approximate): 7217 kbit/s




Джерела та подяки: &
ріп відео, оригінальні звук та субтитри - STarankov (рутор); українська доріжка - omm - зведення, Tanat13 - запис з ТБ (обоє - Гуртом).





ЗАЛИШАЙТЕСЬ ЯКОМОГА ДОВШЕ НА РОЗДАЧІ!

СКАЧАВ САМ - ДАЙ СКАЧАТИ ІНШИМ


Срібний реліз (на рейтинг впливає 50% завантаженого)
 Трекер:    Зареєстрований   

Завантажити / скачати фільм українською



відео для новачків



 Зареєстрований:   2015-08-14 10:44
 Розмір:   6.01 GB 
 Оцінка фільму:   4/10 (Голосів: 17)
   
Інші релізи
Anonymous 







2015-08-14 11:02  
Фільм був учасником програми "Арґумент-кіно" 03.02.2008
Ua.bos_01 
VIP


З нами з: 22.06.15
Востаннє: 03.12.16
Повідомлень: 1290

2015-08-15 21:26  
Ну як на свій час .то я гадаю фільм був досить популярним. Зараз він трішки втратив свій шарм, однак я переглянув його, і ставлю середню оцінку.
Ваш часовий пояс: GMT + 2 Години

Нова тема   Відповісти