Завантажити та скачати торренти українською


Дитя людське / Останній нащадок Землі / Children of Men (2006) 720p Ukr/Eng | Sub Eng

Нові коментарі

Нова тема   Відповісти
Автор Повідомлення
TNT.KOT 
Відео Гуртом - субтитрування
Відео Гуртом - субтитрування


З нами з: 17.03.12
Востаннє: 10.12.16
Повідомлень: 116

2015-08-10 10:51  
Дитя людське / Останній нащадок Землі / Children of Men (2006) 720p Ukr/Eng | Sub Eng

Дитя людське / Останній нащадок Землі / Children of Men (2006) 720p Ukr/Eng | Sub Eng


Жанр: драма, пригодницький, трилер, фантастика,постапокаліпсис
Країна: США, Японія, Великобританія


Рейтинг: MPAA: R

Кінокомпанія: Universal Pictures, Strike Entertainment
Режисер: Альфонсо Куарон
Оператор:Еммануель Любецьки
Композитор:Джон Тавенер

Актори:Клайв Оуен, Джуліанна Мур, Майкл Кейн, Клер-Хоуп Ешіті, Чарлі Ханнем, Мішель Хуссейн, Роб Карлінг, Джон Шевалье, Ріта Дейвіс

Сюжет:
Дія фільму відбувається 2027 року. Людство страждає від безпліддя — за останні 18 років не народилося жодної дитини. У світі панує хаос і лише Великобританії спромоглася зберегти видимість порядку.
Головного героя Тео Фарона (Клайв Оуен) зненацька викрадають терористи. Лідер терористів, колишня дружина Тео Джуліан Тейлор (Джуліанн Мур), пропонує йому 5000 фунтів за те, що він допоможе молодій дівчині Кі втекти за кордон. Неводовзі Кі розповідає Тео свій секрет — вона вагітна. Ризикуючи своїм життям, Тео намагається доправити дівчину до вчених з проекту «Людство».
Премії та номінації
Загалом фільм отримав 20 нагород та 27 номінацій

2007 — Премія «Оскар»:
Найкраща операторська робота — Еммануель Любецьки (номінація)
Найкращий монтаж — Альфонсо Куарон, Алекс Родрігес (номінація)
Найкращий адаптований сценарій — Альфонсо Куарон, Тімоті Секстон, Девід Арата, Марк Фергус, Хоук Остбі (номінація)
2007 — Премія «BAFTA»:
Найкраща операторська робота
Найкраща технологічна підготовка виробництва
Найкращі спецефекти (номінація)
2007 — Венеційський кінофестиваль:
Видатні технічні здобутки
Приз «Laterna Magica»
Золотий лев (номінація)
Цікаві факти

*Слоган фільму: «Нема дітей. Нема майбутнього. Нема надії»
*В книзі події відбуваються 2021 року, але у фільмі дію перенесено до 2027-го.
*У фільмі в камео з'явилася Філліс Дороті Джеймс, автор роману, який ліг в основу фільму.
*Оригінальна назва фільму є посиланням на текст 89-го псалма: «Thou turnest man to destruction; and sayest, Return, ye children of men» (в українському перекладі: «Ти людину вертаєш до пороху, і кажеш: Вернітеся, людські сини!»). Тобто дослівно назва перекладається українською як «Людські сини». Водночас в українському кінопрокаті фільм ішов із заголовком «Останній нащадок Землі», а на українському телебаченні (дубляж студії «Мова» для ТРК Україна) — під назвою «Дитя людське» (калька з російської прокатної назви «Дитя человеческое»).
Тривалість: 01:49:14
Якість:
Відео:
кодек:
розмір кадру: 1 280 х 696
бітрейт: 4830 кб/с

Аудіо # 1:
мова: українська
переклад: багатоголосий закадровий
кодек: 5.1
бітрейт: 448 кб/с

Джерело озвучення:


Аудіо # 2:
мова: англійська
переклад: оригінал
кодек: 5.1
бітрейт: 448 кб/с

Субтитри:
мова: англійська
тип: програмні (м'які)
формат: *.srt
MediaInfo
General
Unique ID : 209108708270945118690000945866856029813 (0x9D50DF4E56E4BF7194A0DF3D943D5E75)
Complete name : D:\Children of Men (2006) (1).mkv
Format : Matroska
Format version : Version 4 / Version 2
File size : 4.37 GiB
Duration : 1h 49mn
Overall bit rate : 5 728 Kbps
Movie name : Children of Men (2006)
Encoded date : UTC 2015-08-10 05:41:01
Writing application : mkvmerge v8.2.0 ('World of Adventure') 64bit
Writing library : libebml v1.3.1 + libmatroska v1.4.2
DURATION : 01:49:13.824000000
NUMBER_OF_FRAMES : 204807
NUMBER_OF_BYTES : 367014144
_STATISTICS_WRITING_APP : mkvmerge v8.2.0 ('World of Adventure') 64bit
_STATISTICS_WRITING_DATE_UTC : 2015-08-10 05:41:01
_STATISTICS_TAGS : BPS DURATION NUMBER_OF_FRAMES NUMBER_OF_BYTES

Video
ID : 1
Format : AVC
Format/Info : Advanced Video Codec
Format profile : [email protected]
Format settings, CABAC : Yes
Format settings, ReFrames : 8 frames
Codec ID : V_MPEG4/ISO/AVC
Duration : 1h 49mn
Bit rate : 4 830 Kbps
Width : 1 280 pixels
Height : 696 pixels
Display aspect ratio : 1.85:1
Frame rate mode : Constant
Frame rate : 23.976 fps
Color space : YUV
Chroma subsampling : 4:2:0
Bit depth : 8 bits
Scan type : Progressive
Bits/(Pixel*Frame) : 0.226
Stream size : 3.60 GiB (82%)
Writing library : core 113 r1882 f6d0c95
Encoding settings : cabac=1 / ref=8 / deblock=1:-3:-2 / analyse=0x3:0x133 / me=tesa / subme=10 / psy=1 / psy_rd=1.05:0.04 / mixed_ref=1 / me_range=32 / chroma_me=1 / trellis=2 / 8x8dct=1 / cqm=0 / deadzone=21,11 / fast_pskip=0 / chroma_qp_offset=-3 / threads=6 / sliced_threads=0 / nr=0 / decimate=0 / interlaced=0 / constrained_intra=0 / bframes=8 / b_pyramid=2 / b_adapt=2 / b_bias=0 / direct=3 / weightb=1 / open_gop=0 / weightp=2 / keyint=250 / keyint_min=23 / scenecut=40 / intra_refresh=0 / rc=2pass / mbtree=0 / bitrate=4830 / ratetol=1.0 / qcomp=0.70 / qpmin=0 / qpmax=69 / qpstep=4 / cplxblur=20.0 / qblur=0.5 / ip_ratio=1.20 / pb_ratio=1.15 / aq=1:0.90 / zones=144533,157156,q=30
Language : English
Default : Yes
Forced : No
DURATION : 01:49:14.757000000
NUMBER_OF_FRAMES : 157157
NUMBER_OF_BYTES : 3957145282
_STATISTICS_WRITING_APP : mkvmerge v8.2.0 ('World of Adventure') 64bit
_STATISTICS_WRITING_DATE_UTC : 2015-08-10 05:41:01
_STATISTICS_TAGS : BPS DURATION NUMBER_OF_FRAMES NUMBER_OF_BYTES
Matrix coefficients : BT.709

Audio #1
ID : 2
Format : AC-3
Format/Info : Audio Coding 3
Mode extension : CM (complete main)
Format settings, Endianness : Big
Codec ID : A_AC3
Duration : 1h 49mn
Bit rate mode : Constant
Bit rate : 448 Kbps
Channel(s) : 6 channels
Channel positions : Front: L C R, Side: L R, LFE
Sampling rate : 48.0 KHz
Bit depth : 16 bits
Compression mode : Lossy
Stream size : 350 MiB (8%)
Language : Ukrainian
Default : Yes
Forced : No

Audio #2
ID : 3
Format : AC-3
Format/Info : Audio Coding 3
Mode extension : CM (complete main)
Format settings, Endianness : Big
Codec ID : A_AC3
Duration : 1h 49mn
Bit rate mode : Constant
Bit rate : 448 Kbps
Channel(s) : 6 channels
Channel positions : Front: L C R, Side: L R, LFE
Sampling rate : 48.0 KHz
Bit depth : 16 bits
Compression mode : Lossy
Stream size : 350 MiB (8%)
Title : Original
Language : English
Default : No
Forced : No

Text
ID : 4
Format : UTF-8
Codec ID : S_TEXT/UTF8
Codec ID/Info : UTF-8 Plain Text
Language : English
Default : No
Forced : No
Скріншоти


Дякую за звукову доріжку п.Romario_O

Джерело:
Особиста оцінка: 8 - мені сподобалося


 Трекер:    Зареєстрований   

Завантажити / скачати фільм українською



відео для новачків



 Зареєстрований:   2015-08-10 11:11
 Розмір:   4.37 GB 
 Оцінка фільму:   9.4/10 (Голосів: 12)
   
MrRyanCooper 
VIP


З нами з: 23.08.12
Востаннє: 08.12.16
Повідомлень: 282

2015-10-30 10:42  
А можете будь-ласка ще звук з НЛО ТБ записати?
Ваш часовий пояс: GMT + 2 Години

Нова тема   Відповісти