Завантажити та скачати торренти українською


Розбірки в стилі кунг-фу / Kung fu (2004) 720p Ukr/Chi | Sub Eng

Нові коментарі

Нова тема   Відповісти
Останній раз роздавалося kuzubr (2016-12-08)
Автор Повідомлення
TNT.KOT 
Відео Гуртом - субтитрування
Відео Гуртом - субтитрування


З нами з: 17.03.12
Востаннє: 08.12.16
Повідомлень: 116

2015-08-08 14:38  
Розбірки в стилі кунг-фу / Kung fu (2004) 720p Ukr/Chi | Sub Eng

Розбірки в стилі кунг-фу / Kung fu (2004) 720p Ukr/Chi | Sub Eng


Жанр: бойовик, пригодницький, комедія
Країна: Гон Конг, Китай



Кінокомпанія: Columbia Pictures Film Production Asia, Huayi Brothers Media, Taihe Film Investment Co. Ltd
Режисер: Стівен Чоу
Актори: Стівен Чоу, Юень Ва, К`ю Юен, Квок-Куен Чан, Сю-Люн Люн, Жи Хуа Донг, Лам Чі Чунг

Сюжет:
Китай, сорокові роки. Невдалий шахрай Сін замислив крупну справу. Він вступає до банди зарізяк "Сокири", яка намагається встановити панування в тихому кварталі під назвою ""Свинарник"". Чарівний, але незграбний герой стає ланкою в ланцюзі подій, що породжують карколомні поєдинки, захоплюючий екшн, купу смішних ситуацій і масу вражаючих спецефектів...


Тривалість: 01:39:25
Якість: 720p
Відео:
кодек:
розмір кадру: 1 280 х 534
бітрейт: 4060 кб/с

Аудіо # 1:
мова: українська
переклад: багатоголосий закадровий
кодек: 5.1
бітрейт: 448 кб/с

Джерело озвучення:


Аудіо # 2:
мова: китайська
переклад: оригінал
кодек: 5.1
бітрейт: 755кб/с

Субтитри:
мова: англійська
тип: програмні (м'які)
формат: *.srt
MediaInfo
General
Unique ID : 199858949303834179450981003765665126796 (0x965B6EFAA1260F7F956C03717172598C)
Complete name : D:\Kung.Fu.Hustle.2004.720p.BluRay.. (1).mkv
Format : Matroska
Format version : Version 4 / Version 2
File size : 3.66 GiB
Duration : 1h 39mn
Overall bit rate : 5 268 Kbps
Movie name : Kung Fu Hustle (2004)
Encoded date : UTC 2015-08-08 10:24:11
Writing application : mkvmerge v7.3.0 ('Nouages') 64bit built on Oct 22 2014 18:53:34
Writing library : libebml v1.3.0 + libmatroska v1.4.1
DURATION : 01:39:25.952000000
NUMBER_OF_FRAMES : 186436
NUMBER_OF_BYTES : 334093312
_STATISTICS_WRITING_APP : mkvmerge v7.3.0 ('Nouages') 64bit built on Oct 22 2014 18:53:34
_STATISTICS_WRITING_DATE_UTC : 2015-08-08 10:24:11
_STATISTICS_TAGS : BPS DURATION NUMBER_OF_FRAMES NUMBER_OF_BYTES
Attachment : Yes / Yes / Yes / Yes / Yes / Yes / Yes / Yes / Yes / Yes / Yes

Video
ID : 1
Format : AVC
Format/Info : Advanced Video Codec
Format profile : [email protected]
Format settings, CABAC : Yes
Format settings, ReFrames : 8 frames
Codec ID : V_MPEG4/ISO/AVC
Duration : 1h 39mn
Bit rate : 4 060 Kbps
Width : 1 280 pixels
Height : 534 pixels
Display aspect ratio : 2.40:1
Frame rate mode : Constant
Frame rate : 23.976 fps
Color space : YUV
Chroma subsampling : 4:2:0
Bit depth : 8 bits
Scan type : Progressive
Bits/(Pixel*Frame) : 0.248
Stream size : 2.75 GiB (75%)
Title : ViDEO
Writing library : core 93 r1542 5b86182
Encoding settings : cabac=1 / ref=8 / deblock=1:-3:-2 / analyse=0x3:0x113 / me=umh / subme=10 / psy=1 / psy_rd=1.10:0.00 / mixed_ref=1 / me_range=32 / chroma_me=1 / trellis=2 / 8x8dct=1 / cqm=0 / deadzone=21,11 / fast_pskip=0 / chroma_qp_offset=-2 / threads=9 / sliced_threads=0 / nr=0 / decimate=0 / interlaced=0 / constrained_intra=0 / bframes=10 / b_pyramid=2 / b_adapt=2 / b_bias=0 / direct=3 / wpredb=1 / wpredp=2 / keyint=250 / keyint_min=25 / scenecut=40 / intra_refresh=0 / rc_lookahead=80 / rc=2pass / mbtree=1 / bitrate=4060 / ratetol=1.0 / qcomp=0.70 / qpmin=10 / qpmax=51 / qpstep=4 / cplxblur=20.0 / qblur=0.5 / vbv_maxrate=16000 / vbv_bufsize=62500 / ip_ratio=1.40 / aq=2:0.75 / nal_hrd=none
Language : Chinese
Default : Yes
Forced : No
DURATION : 01:39:25.960000000
NUMBER_OF_FRAMES : 143040
NUMBER_OF_BYTES : 3027759658
_STATISTICS_WRITING_APP : mkvmerge v7.3.0 ('Nouages') 64bit built on Oct 22 2014 18:53:34
_STATISTICS_WRITING_DATE_UTC : 2015-08-08 10:24:11
_STATISTICS_TAGS : BPS DURATION NUMBER_OF_FRAMES NUMBER_OF_BYTES
Matrix coefficients : BT.709

Audio #1
ID : 2
Format : AC-3
Format/Info : Audio Coding 3
Mode extension : CM (complete main)
Format settings, Endianness : Big
Codec ID : A_AC3
Duration : 1h 39mn
Bit rate mode : Constant
Bit rate : 448 Kbps
Channel(s) : 6 channels
Channel positions : Front: L C R, Side: L R, LFE
Sampling rate : 48.0 KHz
Bit depth : 16 bits
Compression mode : Lossy
Stream size : 319 MiB (9%)
Default : Yes
Forced : No

Audio #2
ID : 3
Format :
Format/Info : Digital Theater Systems
Mode : 16
Format settings, Endianness : Big
Codec ID : A_DTS
Duration : 1h 39mn
Bit rate mode : Constant
Bit rate : 755 Kbps
Channel(s) : 6 channels
Channel positions : Front: L C R, Side: L R, LFE
Sampling rate : 48.0 KHz
Bit depth : 16 bits
Compression mode : Lossy
Stream size : 537 MiB (14%)
Title : 5.1 @ 768 kbps (cantonese)
Language : Chinese
Default : No
Forced : No

Text
ID : 4
Format : ASS
Codec ID : S_TEXT/ASS
Codec ID/Info : Advanced Sub Station Alpha
Compression mode : Lossless
Language : English
Default : No
Forced : No

Menu
00:00:00.000 : en:01.Start
00:03:03.973 : en:02.The Axe Gang
00:07:12.624 : en:03.Pig Sty Alley
00:12:30.627 : en:04.Sing
00:16:50.769 : en:05."Call For Help!"
00:21:29.153 : en:06.Three Heroes
00:24:47.863 : en:07.Sing's Special Skill
00:25:35.464 : en:08.To the Rescue
00:33:35.933 : en:09.Just One Kill
00:36:48.067 : en:10.Quick Healer
00:39:10.771 : en:11.Assassins
00:42:37.313 : en:12.One Down
00:43:39.843 : en:13.Super Tailor
00:49:11.849 : en:14.Evened Odds
00:51:27.849 : en:15.The Lion's Roar
00:52:29.182 : en:16.A Warning for Brother Sum
00:54:15.104 : en:17.A Broken Promise
00:56:25.302 : en:18.Mute Memory
01:02:05.793 : en:19.Deep in the Asylum
01:05:19.752 : en:20.The Beast
01:09:01.764 : en:21.Paris & Helen of Troy
01:14:07.568 : en:22.Amplification
01:15:37.235 : en:23.Sing's True Character
01:20:24.457 : en:24.Chrysalis
01:21:37.849 : en:25.His Kung Fu is Strong
01:25:44.707 : en:26.Sing vs. the Beast
01:29:16.963 : en:27.The Buddhist Palm
01:34:29.640 : en:28.New Starts & Lollipops
Скріншоти
Подяка за надану доріжку п.Wrongfunction

Джерело: &
Особиста оцінка: 9 - давно не бачив настільки якісне кіно


Срібний реліз (на рейтинг впливає 50% завантаженого)
 Трекер:    Зареєстрований   

Завантажити / скачати фільм українською



відео для новачків



 Зареєстрований:   2015-08-08 14:38
 Розмір:   3.66 GB 
 Оцінка фільму:   10/10 (Голосів: 7)
   
CrimsonAndrew 
Свій


З нами з: 02.04.13
Востаннє: 08.12.16
Повідомлень: 97

2016-07-03 11:07  
Поверніться, будь ласка, на роздачу.
Ваш часовий пояс: GMT + 2 Години

Нова тема   Відповісти