Завантажити та скачати торренти українською


Роман Коляда (Roman Kolyada) - Погляд в небо (Look into the sky) (2008) [FLAC] | Instrumental/Piano

Нові коментарі

Нова тема   Відповісти
Останній раз роздавалося rva077 (2016-11-27)
Автор Повідомлення
kolpavel 
VIP


З нами з: 04.05.14
Востаннє: 03.12.16
Повідомлень: 1060

2015-07-31 13:48  
Роман Коляда (Roman Kolyada) - Погляд в небо (Look into the sky) (2008) [FLAC] | Instrumental/Piano

Роман Коляда (Roman Kolyada) - Погляд в небо (Look into the sky) (2008) [FLAC] | Instrumental/Piano


Стиль: Instrumental Piano
Країна, місто: Україна, Київ
Видавець: Арт-Меню
Сайти: Офіційний сайт
Виконавці:
Роман Коляда
Пісні:
    01. Високо-високо над морем 5:49
    02. Trinity 4:08
    03. Тихий спокій над хмарами 5:42
    04. Душа його душі 4:28
    05. Просто пісня 3:15
    06. Беззахисна ніжність 3:44
    07. Лісовик та Мавка 2:03
    08. Ольга 4:31
    09. Пісня серця 3:42
    10. Вечірні мрії 4:44
    11. Несподіваний погляд 3:50
    12. З неба падає дощ 2:38
    13. Погляд в небо 3:19
    14. Вибачення 2:46
    15. Триптих: Пошуки/ Знахідка/ Пристрасть 4:39

Тривалість: 00:59:23
Мова: інструментальні композиції
Аудіо-кодек: FLAC
Бітрейт: 486 кб/с
Джерело: рутрекер (ріп 99xt1)
Додаткова інформація:
Лог:
Exact Audio Copy V0.99 prebeta 4 from 23. January 2008

Отчёт EAC об извлечении, выполненном 22. апреля 2009, 20:49

Roman Kolyada / Look into the sky

Дисковод: TOSHIBA DVD-ROM SD-R1312 Adapter: 4 ID: 0

Режим чтения : Достоверность
Использование точного потока : Да
Отключение кэша аудио : Да
Использование указателей C2 : Нет

Коррекция смещения при чтении : 116
Способность читать области Lead-in и Lead-out : Нет
Заполнение пропущенных сэмплов тишиной : Да
Удаление блоков с тишиной в начале и конце : Нет
При вычислениях CRC использовались нулевые сэмплы : Да
Интерфейс : Встроенный Win32-интерфейс для Win NT/2000

Выходной формат : Пользовательский кодировщик
Выбранный битрейт : 768 kBit/s
Качество : Высокий
Добавление ID3-тэга : Нет
Утилита сжатия : C:\Program Files\Exact Audio Copy\FLAC\FLAC.EXE
Дополнительные параметры : -6 -V -T "ARTIST=%a" -T "TITLE=%t" -T "ALBUM=%g" -T "DATE=%y" -T "TRACKNUMBER=%n" -T "GENRE=%m" -T "COMMENT=%e" %s -o %d

TOC извлечённого CD

Трек | Старт | Длительность | Начальный сектор | Конечный сектор
---------------------------------------------------------------------
1 | 0:00.00 | 5:49.10 | 0 | 26184
2 | 5:49.10 | 4:08.10 | 26185 | 44794
3 | 9:57.20 | 5:42.64 | 44795 | 70508
4 | 15:40.09 | 4:28.02 | 70509 | 90610
5 | 20:08.11 | 3:15.17 | 90611 | 105252
6 | 23:23.28 | 3:44.02 | 105253 | 122054
7 | 27:07.30 | 2:03.27 | 122055 | 131306
8 | 29:10.57 | 4:30.72 | 131307 | 151628
9 | 33:41.54 | 3:41.72 | 151629 | 168275
10 | 37:23.51 | 4:44.60 | 168276 | 189635
11 | 42:08.36 | 3:50.42 | 189636 | 206927
12 | 45:59.03 | 2:38.40 | 206928 | 218817
13 | 48:37.43 | 3:19.18 | 218818 | 233760
14 | 51:56.61 | 2:46.52 | 233761 | 246262
15 | 54:43.38 | 4:39.67 | 246263 | 267254

Характеристики диапазона извлечения и сообщения об ошибках

Выбранный диапазон

Имя файла F:\Мои раздачи\Roman Kolyada - Look into the sky\Roman Kolyada - Look into the sky.wav

Пиковый уровень 100.0 %
Качество диапазона 99.9 %
CRC копии EA7E2B25
Копирование... OK

Ошибок не произошло
Конец отчёта

Слухати цю музику – наче потихеньку пити свіжий чай із м’ятою – торкатися теплої свіжості. Я слухаю її вперше зараз – коли за вікном висить дощ довжиною в добу, коли відстань між землею і небом м’яко зникає, коли вчорашні шляхи вже розмито, а завтрашні – ще не існують. Тут і зараз прозорі краплі нот наповнюють повітря якимось кришталево-чистим відчуттям спокою. Мелодії Романа Коляди ростуть із ніжною силою зелених пагонів, вони не ламають обрію – але розсувають простір. І якби можна було говорити про музичне втілення тихого сяйва перлини – то варто було б говорити про це саме зараз. Причому, це було б однаково справедливим і щодо окремих мелодій, і щодо альбому в цілому. Внутрішня збалансованість, гармонійність альбому така, що він дійсно звучить як цілісний твір, насичена розповідь – але це не перекреслює самостійної краси і значення ліній, з яких він складається. Це... музика тиші. Не порожнечі, а саме – тиші..
Якщо Ви справді бажаєте підтримати українське - після прослуховування, якщо музика вам сподобалась, придбайте ліцензійний диск. Підтримаймо вітчизняних виконавців!


Срібний реліз (на рейтинг впливає 50% завантаженого)
 Трекер:    Зареєстрований   

Завантажити / скачати українську музику



відео для новачків



 Зареєстрований:   2015-07-31 13:48
 Розмір:   208 MB 
 Оцінка музики:   10/10 (Голосів: 2)
   
kolpavel 
VIP


З нами з: 04.05.14
Востаннє: 03.12.16
Повідомлень: 1060

2015-07-31 13:51  
Roman Kolyada - Love and separation dance (Роман Коляда - Танець любові та розлуки) (Special edition) (2009) - http://toloka.to/t67462#744036
STAMP 
Новенький


З нами з: 04.02.15
Востаннє: 23.11.16
Повідомлень: 18

2015-07-31 14:23  
можна в мп3 ?
kolpavel 
VIP


З нами з: 04.05.14
Востаннє: 03.12.16
Повідомлень: 1060

2015-07-31 16:31  
Ваш часовий пояс: GMT + 2 Години

Нова тема   Відповісти