Завантажити та скачати торренти українською


Роман Коляда (Roman Kolyada) - Танець любові та розлуки (Love and separation dance) (Special edition) (2009) [FLAC] | Instrumental/Piano

Нові коментарі

Нова тема   Відповісти
Останній раз роздавалося rva077 (2016-12-10)
Автор Повідомлення
kolpavel 
VIP


З нами з: 04.05.14
Востаннє: 11.12.16
Повідомлень: 1062

2015-07-31 13:37  
Роман Коляда (Roman Kolyada) - Танець любові та розлуки (Love and separation dance) (Special edition) (2009) [FLAC] | Instrumental/Piano

Роман Коляда (Roman Kolyada) - Танець любові та розлуки (Love and separation dance) (Special edition) (2009) [FLAC] | Instrumental/Piano


Стиль: Instrumental Piano
Країна, місто: Україна, Київ
Сайти: Офіційний сайт
Видавець: Арт-Меню
Виконавці:
Роман Коляда - фортепіано (1-13), мелодіка (1,2), рейнстік (2)
Олексій Смірнов - флейта (2,13), саксофон (13)
Сергій Рибалкін - гітара (13)
Віктор Крисько - скрипка (13)
Пісні:
    01. Вечір перед зустріччю 5:34
    02. Самотність у Парижі 4:28
    03. Небо над островом St. Helena 4:24
    04. Танець любові та розлуки 3:27
    05. Ніжний смуток 3:10
    06. Відлуння вічного 2:47
    07. Народження полум’я 4:29
    08. Політ над хвилями 3:47
    09. Галина 5:11
    10. Вечір світлих спогадів 3:56
    11. Після кохання 4:56
    12. Початок нескінченного 4:42
    13. Катарсис 7:19

Тривалість: 00:57:52
Мова: інструментальні композиції
Аудіо-кодек: FLAC
Бітрейт: 549 кб/с
Джерело: рутрекер (ріп 99xt1)
Додаткова інформація:
Звiт EAC:
Exact Audio Copy V0.99 prebeta 5 from 4. May 2009

EAC extraction logfile from 9. October 2009, 22:08

Love and separation dance / Roman Kolyada

Used drive : TOSHIBA DVD-ROM SD-R1312 Adapter: 4 ID: 0

Read mode : Secure
Utilize accurate stream : Yes
Defeat audio cache : Yes
Make use of C2 pointers : No

Read offset correction : 116
Overread into Lead-In and Lead-Out : No
Fill up missing offset samples with silence : Yes
Delete leading and trailing silent blocks : No
Null samples used in CRC calculations : Yes
Used interface : Native Win32 interface for Win NT & 2000

Used output format : User Defined Encoder
Selected bitrate : 768 kBit/s
Quality : High
Add ID3 tag : No
Command line compressor : C:\Program Files\Exact Audio Copy\FLAC\FLAC.EXE
Additional command line options : -8 -V -T "ARTIST=%a" -T "TITLE=%t" -T "ALBUM=%g" -T "DATE=%y" -T "TRACKNUMBER=%n" -T "GENRE=%m" -T "COMMENT=%e" %s -o %d

TOC of the extracted CD

Track | Start | Length | Start sector | End sector
---------------------------------------------------------
1 | 0:00.06 | 5:34.60 | 6 | 25115
2 | 5:34.66 | 4:28.67 | 25116 | 45282
3 | 10:03.58 | 4:24.13 | 45283 | 65095
4 | 14:27.71 | 3:27.64 | 65096 | 80684
5 | 17:55.60 | 3:10.31 | 80685 | 94965
6 | 21:06.16 | 2:47.65 | 94966 | 107555
7 | 23:54.06 | 4:29.09 | 107556 | 127739
8 | 28:23.15 | 3:46.74 | 127740 | 144763
9 | 32:10.14 | 5:11.25 | 144764 | 168113
10 | 37:21.39 | 3:56.27 | 168114 | 185840
11 | 41:17.66 | 4:56.47 | 185841 | 208087
12 | 46:14.38 | 4:42.70 | 208088 | 229307
13 | 50:57.33 | 7:19.27 | 229308 | 262259

Range status and errors

Selected range

Filename E:\My Documents\EAC\Love and separation dance - Roman Kolyada.wav

Peak level 100.0 %
Range quality 100.0 %
Copy CRC 36FCC0E6
Copy OK

No errors occurred

End of status report

Гарні речі можуть бути простими – і не втрачати при цьому чарівності, і промовляти при цьому до складних закапелків твоєї свідомості, і прошивати тонкою ниткою грубі аркуші звичок. Адже ми звикаємо – і, звикнувши, банально перестаємо помічати. Потрібні чисті лінії, аби розгорнути, розправити погляд, замкнутий на буднях – а Роман Коляда і вміє, і вчиться створювати такі лінії. Його мелодії живуть у елегійних відтінках – але стиха наповнюють їх ясним, спокійним оптимізмом. Можливо, тут немає спокою відстороненого – зате звучить, мені здається, розуміння, що злітає лише той, хто приймає. Так вода здатна перетворюватися на хмару, на кригу – і повертатися до себе. Завжди – іншою. Емоційна, але чесна спроба примирення із самим собою – як перші кроки до свободи. Втім, тут будь-який крок є першим – бо, хай би як чітко ми не уявляли шлях, кожної миті рухаємося до незвіданого, хіба ні? Єдине, що потрібно, це чисті лінії всередині – і є відчуття, що "Танець любові та розлуки" сплетено саме з них.
Зрештою, гарні речі можуть бути простими, а відтак – можуть просто бути. І не потребувати додаткових пояснень.

Якщо Ви справді бажаєте підтримати українське - після прослуховування, якщо музика вам сподобалась, придбайте ліцензійний диск. Підтримаймо вітчизняних виконавців!


Срібний реліз (на рейтинг впливає 50% завантаженого)
 Трекер:    Зареєстрований   

Завантажити / скачати українську музику



відео для новачків



 Зареєстрований:   2015-07-31 13:37
 Розмір:   233 MB 
 Оцінка музики:   10/10 (Голосів: 4)
   
kolpavel 
VIP


З нами з: 04.05.14
Востаннє: 11.12.16
Повідомлень: 1062

2015-07-31 13:51  
Roman Kolyada - Look into the sky (Роман Коляда - Погляд в небо) (2008) [FLAC] - http://toloka.to/t67463
ssTAss 
Модератор музики


З нами з: 05.07.08
Востаннє: 11.12.16
Повідомлень: 10954

2015-07-31 21:03  
Ваш часовий пояс: GMT + 2 Години

Нова тема   Відповісти