Завантажити та скачати торренти українською


Шерлок Холмс: Дилогія / Sherlock Holmes: Dilogy (2009-2011) 720p-mini (60 fps)

Нові коментарі

Нова тема   Відповісти
Автор Повідомлення
Drool 
VIP


З нами з: 17.04.10
Востаннє: 02.12.16
Повідомлень: 1262

2015-07-31 10:53  
Шерлок Холмс: Дилогія / Sherlock Holmes: Dilogy (2009-2011) 720p-mini (60 fps)

Жанр: екшн, пригодницький, детектив, кримінальний
Країна: Велика Британія, США
"Шерлок Холмс / Sherlock Holmes (2009) 720p-mini (60 fps)"
Шерлок Холмс / Sherlock Holmes (2009) 720p-mini (60 fps)

Жанр: екшн, пригодницький, детектив, кримінальний
Країна: Велика Британія, США



Кінокомпанія: Warner Brothers
Режисер: Гай Річі
Актори: Роберт Дауні мол., Джуд Лоу, Рейчел МакАдамс, Марк Стронг, Едді Марсан, Роберт Мейллет, Джеральдін Джеймс та інші

Сюжет:
Шерлок Холмс разом зі своїм вірним соратником Ватсоном вступають у сутичку, яка вимагає гарної фізичної та розумової підготовки, адже їх ворог представляє загрозу всьому Лондону.


Тривалість: 02:08:24
Якість: 720p-mini
Відео:
кодек:
розмір кадру: 1280x720
бітрейт: 6741 кб/с
частота кадрів: 59.940 кадрів/с

Аудіо:
мова: українська
переклад: професійний дубльований
кодек: 5.1
бітрейт: 448 кб/с

Джерело озвучення:


Субтитри:
мова: українська
тип: програмні (м'які) форсовані
формат: *.srt
MediaInfo
General
Unique ID : 30860537685718028325554893347361741451 (0x173785FB1C1C08A29EA5C391AB2D5A8B)
Complete name : /mnt/disk_d/Video/Sherlock Holmes. Dilogy (2009-2011) 720p (60 fps)/Sherlock.Holmes.2009.Ukr.Dub..720p-mini.mkv
Format : Matroska
Format version : Version 4 / Version 2
File size : 6.59 GiB
Duration : 2h 8mn
Overall bit rate : 7 348 Kbps
Movie name : Шерлок Холмс / Sherlock Holmes (2009) 720p-mini
Encoded date : UTC 2015-07-31 05:50:29
Writing application : mkvmerge v8.1.0 ('Psychedelic Postcard') 64bit
Writing library : libebml v1.3.1 + libmatroska v1.4.2
DURATION : 00:55:31.369000000
NUMBER_OF_FRAMES : 20
NUMBER_OF_BYTES : 776
_STATISTICS_WRITING_APP : mkvmerge v8.1.0 ('Psychedelic Postcard') 64bit
_STATISTICS_WRITING_DATE_UTC : 2015-07-31 05:50:29
_STATISTICS_TAGS : BPS DURATION NUMBER_OF_FRAMES NUMBER_OF_BYTES

Video
ID : 1
Format : AVC
Format/Info : Advanced Video Codec
Format profile : [email protected]
Format settings, CABAC : Yes
Format settings, ReFrames : 9 frames
Codec ID : V_MPEG4/ISO/AVC
Duration : 2h 8mn
Bit rate : 6 754 Kbps
Width : 1 280 pixels
Height : 720 pixels
Display aspect ratio : 16:9
Frame rate mode : Constant
Frame rate : 59.880 fps
Original frame rate : 59.940 fps
Color space : YUV
Chroma subsampling : 4:2:0
Bit depth : 8 bits
Scan type : Progressive
Bits/(Pixel*Frame) : 0.122
Stream size : 6.06 GiB (92%)
Title : Шерлок Холмс / Sherlock Holmes (2009) 720p-mini
Writing library : core 133 r2334 a3ac64b
Encoding settings : cabac=1 / ref=9 / deblock=1:-1:-1 / analyse=0x3:0 / me=umh / subme=9 / psy=1 / psy_rd=1.00:0.10 / mixed_ref=1 / me_range=42 / chroma_me=0 / trellis=2 / 8x8dct=1 / cqm=0 / deadzone=21,11 / fast_pskip=0 / chroma_qp_offset=-3 / threads=12 / lookahead_threads=1 / sliced_threads=0 / nr=0 / decimate=0 / interlaced=0 / bluray_compat=0 / constrained_intra=0 / bframes=6 / b_pyramid=2 / b_adapt=2 / b_bias=0 / direct=1 / weightb=1 / open_gop=0 / weightp=2 / keyint=594 / keyint_min=59 / scenecut=40 / intra_refresh=0 / rc=crf / mbtree=0 / crf=15.0 / qcomp=0.60 / qpmin=0 / qpmax=69 / qpstep=4 / ip_ratio=1.40 / pb_ratio=1.30 / aq=0
Default : Yes
Forced : Yes
DURATION : 02:08:24.638000000
NUMBER_OF_FRAMES : 461816
NUMBER_OF_BYTES : 6641692723
_STATISTICS_WRITING_APP : mkvmerge v8.1.0 ('Psychedelic Postcard') 64bit
_STATISTICS_WRITING_DATE_UTC : 2015-07-31 05:50:29
_STATISTICS_TAGS : BPS DURATION NUMBER_OF_FRAMES NUMBER_OF_BYTES

Audio
ID : 2
Format : AC-3
Format/Info : Audio Coding 3
Mode extension : CM (complete main)
Format settings, Endianness : Big
Codec ID : A_AC3
Duration : 2h 8mn
Bit rate mode : Constant
Bit rate : 448 Kbps
Channel(s) : 6 channels
Channel positions : Front: L C R, Side: L R, LFE
Sampling rate : 48.0 KHz
Bit depth : 16 bits
Compression mode : Lossy
Stream size : 411 MiB (6%)
Title : Рідна мова ( 5.1, 448 kbps)
Language : Ukrainian
Default : Yes
Forced : Yes

Text
ID : 3
Format : UTF-8
Codec ID : S_TEXT/UTF8
Codec ID/Info : UTF-8 Plain Text
Title : Українські (форсовані)
Language : Ukrainian
Default : Yes
Forced : Yes
Скріншоти




"Шерлок Холмс: Гра тіней / Sherlock Holmes: A Game of Shadows (2011) 720p-mini (60 fps)"
Шерлок Холмс: Гра тіней / Sherlock Holmes: A Game of Shadows (2011) 720p-mini (60 fps)

Жанр: екшн, пригодницький, детектив, кримінальний
Країна: США



Кінокомпанія: Warner Bros. Pictures, Village Roadshow Pictures
Режисер: Гай Річі
Актори: Роберт Дауні мол., Джуд Лоу, Нумі Рапейс, Рейчел МакАдамс, Марк Стронг, Джаред Харріс, Стівен Фрай та інші

Сюжет:
Коли кронпринца Австрії знаходять мертвим, всі докази, на думку інспектора Лестрейда, вказують на самогубство. Проте Шерлок Холмс має іншу версію. На його думку, це вбивство — лише маленький шматочок набагато грандіознішої і зловіснішої мозаїки, створеної професором Моріарті. Розплутати цю змову – найбільший виклик за всю кар’єру.


Тривалість: 02:08:44
Якість: 720p-mini
Відео:
кодек:
розмір кадру: 1280x536
бітрейт: 5202 кб/с
частота кадрів: 59.940 кадрів/с

Аудіо:
мова: українська
переклад: професійний дубльований
кодек: 5.1
бітрейт: 448 кб/с

Джерело озвучення:


Субтитри:
мова: українська
тип: програмні (м'які) форсовані
формат: *.srt
MediaInfo
General
Unique ID : 81738381313731851511608510648173363896 (0x3D7E3D579759A9F58B37081BB3E682B8)
Complete name : /mnt/disk_d/Video/Sherlock Holmes. Dilogy (2009-2011) 720p (60 fps)/Sherlock.Holmes.2011.Ukr.Dub..720p-mini.mkv
Format : Matroska
Format version : Version 4 / Version 2
File size : 5.20 GiB
Duration : 2h 8mn
Overall bit rate : 5 778 Kbps
Movie name : Шерлок Холмс: Гра тіней / Sherlock Holmes: A Game of Shadows (2011) 720p-mini
Encoded date : UTC 2015-07-31 06:01:55
Writing application : mkvmerge v8.1.0 ('Psychedelic Postcard') 64bit
Writing library : libebml v1.3.1 + libmatroska v1.4.2
DURATION : 01:41:56.901000000
NUMBER_OF_FRAMES : 30
NUMBER_OF_BYTES : 1319
_STATISTICS_WRITING_APP : mkvmerge v8.1.0 ('Psychedelic Postcard') 64bit
_STATISTICS_WRITING_DATE_UTC : 2015-07-31 06:01:55
_STATISTICS_TAGS : BPS DURATION NUMBER_OF_FRAMES NUMBER_OF_BYTES

Video
ID : 1
Format : AVC
Format/Info : Advanced Video Codec
Format profile : [email protected]
Format settings, CABAC : Yes
Format settings, ReFrames : 4 frames
Codec ID : V_MPEG4/ISO/AVC
Duration : 2h 8mn
Bit rate : 5 215 Kbps
Width : 1 280 pixels
Height : 536 pixels
Display aspect ratio : 2.40:1
Frame rate mode : Constant
Frame rate : 59.880 fps
Original frame rate : 59.940 fps
Color space : YUV
Chroma subsampling : 4:2:0
Bit depth : 8 bits
Scan type : Progressive
Bits/(Pixel*Frame) : 0.127
Stream size : 4.69 GiB (90%)
Title : Шерлок Холмс: Гра тіней / Sherlock Holmes: A Game of Shadows (2011) 720p-mini
Writing library : core 133 r2334 a3ac64b
Encoding settings : cabac=1 / ref=4 / deblock=1:-1:-1 / analyse=0x3:0 / me=umh / subme=9 / psy=1 / psy_rd=1.00:0.10 / mixed_ref=1 / me_range=42 / chroma_me=0 / trellis=2 / 8x8dct=1 / cqm=0 / deadzone=21,11 / fast_pskip=0 / chroma_qp_offset=-3 / threads=12 / lookahead_threads=1 / sliced_threads=0 / nr=0 / decimate=0 / interlaced=0 / bluray_compat=0 / constrained_intra=0 / bframes=5 / b_pyramid=2 / b_adapt=2 / b_bias=0 / direct=1 / weightb=1 / open_gop=0 / weightp=2 / keyint=594 / keyint_min=59 / scenecut=40 / intra_refresh=0 / rc=crf / mbtree=0 / crf=15.0 / qcomp=0.60 / qpmin=0 / qpmax=69 / qpstep=4 / ip_ratio=1.40 / pb_ratio=1.30 / aq=0
Default : Yes
Forced : Yes
DURATION : 02:08:44.692000000
NUMBER_OF_FRAMES : 463018
NUMBER_OF_BYTES : 5142767488
_STATISTICS_WRITING_APP : mkvmerge v8.1.0 ('Psychedelic Postcard') 64bit
_STATISTICS_WRITING_DATE_UTC : 2015-07-31 06:01:55
_STATISTICS_TAGS : BPS DURATION NUMBER_OF_FRAMES NUMBER_OF_BYTES

Audio
ID : 2
Format : AC-3
Format/Info : Audio Coding 3
Mode extension : CM (complete main)
Format settings, Endianness : Big
Codec ID : A_AC3
Duration : 2h 8mn
Bit rate mode : Constant
Bit rate : 448 Kbps
Channel(s) : 6 channels
Channel positions : Front: L C R, Side: L R, LFE
Sampling rate : 48.0 KHz
Bit depth : 16 bits
Compression mode : Lossy
Stream size : 413 MiB (8%)
Title : Рідна мова ( 5.1, 448 kbps)
Language : Ukrainian
Default : Yes
Forced : Yes

Text
ID : 3
Format : UTF-8
Codec ID : S_TEXT/UTF8
Codec ID/Info : UTF-8 Plain Text
Title : Українські (форсовані)
Language : Ukrainian
Default : Yes
Forced : Yes
Скріншоти




Джерело відеоряду:
Особиста оцінка: 10 - без зайвих вагань рекомендую всім!


 Трекер:    Зареєстрований   

Завантажити / скачати фільм українською



відео для новачків



 Зареєстрований:   2015-07-31 11:05
 Розмір:   11.79 GB 
 Оцінка фільму:   9.7/10 (Голосів: 18)
   
weyner2013 
Частий відвідувач


З нами з: 12.01.14
Востаннє: 02.12.16
Повідомлень: 36

2015-10-09 10:56  
Станьте на роздачу, прошу будь ласка)))
Ваш часовий пояс: GMT + 2 Години

Нова тема   Відповісти