Завантажити та скачати торренти українською


Закон Доблесті / Act of Valor (2012) 720p 2xUkr/Eng | Sub Ukr/Eng

Нові коментарі

Нова тема   Відповісти
Автор Повідомлення
Anonymous 







2015-07-30 15:56  
Закон Доблесті / Act of Valor (2012) 720p 2xUkr/Eng | Sub Ukr/Eng



Українізовані та альтернативні обкладинки і постери








повнорозмірні зображення відкриються по кліку (з натиснутим CTRL чи кліком середньою кнопкою мишки - у іншій вкладці)


Жанр: пригодницький, бойовик, екшн, воєнний, трилер
Країна: США



Кінокомпанія: Relativity Media, Bandito Brothers
Режисер: Майк МакКой / Mike McCoy, Скотт Во / Scott Waugh
Актори: Джейсон Коттл, Нестор Серрано, Айлса Маршалл, Гонсало Менендес, Еміліо Рівера, Дімітар Маринов, Томас Розалес мл., Марк Маргуліс, Ден Сауфуорф, Андреа Кастро

Сюжет:
Історія про нелегкі будні елітної групи спецназу «морські котики», яким доручено витягнути з полону агентів ЦРУ​​. Виконуючи завдання, бійці попутно знищують терористичну групу, в плани якої входила масштабна атака на США.

- У фільмі знімалися справжні бійці SEAL (Морські котики).
- Проект ініційовано командуванням Підрозділу спеціальних операцій ВМС США (Navy Special Warfare). Цілі проекту: підтримати набори в спецпідрозділ, висловити честь заслугам загиблих в бою спецназівців, сформувати позитивну громадську думку до такого поняття, як «Морський котик».


Рейтинг MPAA: R - особам до 17 років обов'язкова присутність батьків або дорослого опікуна
Вікова категорія: 16+

Тривалість: 01:49:29
Якість: 720p [IRONCLUB]
Відео:
кодек:
розмір кадру: 1280 х 720
бітрейт: 10000 кбіт/с

Аудіо # 1:
мова: українська
переклад: багатоголосий закадровий
кодек: 2.0
бітрейт: 192 кбіт/с
примітка: епізод з 01:18:45 по 01:21:40 не транслювався по 2+2, тому його замінено любительською озвучкою від UAVoice

Аудіо # 2:
мова: українська
переклад: двоголосий закадровий
кодек: 2.0
бітрейт: 192 кбіт/с
Інформація про озвучення
Переклад і озвучення виконано: UAVoice
Переклад: BOOGud.
Озвучка: Людмила Швець, Дмитро Урсуляк
Монтаж та робота зі звуком: Дмитро Урсуляк (BOOGud)
Аудіо # 3:
мова: англійська
переклад: оригінал
кодек: 5.1
бітрейт: 1509 кбіт/с

Субтитри #1:
мова: українська
тип: програмні (м'які)
формат: *.srt

Субтитри #2:
мова: англійська
тип: програмні (м'які)
формат: *.srt

Збережено оригінальні розділи, як на Blu-ray.
MediaInfo та log
Код:
General
Unique ID                   : 221953894488517462527971449281384829168 (0xA6FAC3E1FA05F2A49B8E5FFCB6DC50F0)
Complete name               : Act of Valor (2012) [2xUkr,Eng sub.Ukr,Eng] 720p [Hurtom].mkv
Format                      : Matroska
Format version              : Version 4 / Version 2
File size                   : 9.09 GiB
Duration                    : 1h 49mn
Overall bit rate            : 11.9 Mbps
Movie name                  : Закон Доблесті / Act of Valor (2012) [2xUkr,Eng sub.Ukr,Eng] 720p [Hurtom]
Encoded date                : UTC 2015-07-30 06:58:03
Writing application         : mkvmerge v8.2.0 ('World of Adventure') 64bit
Writing library             : libebml v1.3.1 + libmatroska v1.4.2
Attachements                : cover.jpg
DURATION                    : 01:39:06.273000000
NUMBER_OF_FRAMES            : 867
NUMBER_OF_BYTES             : 35286
_STATISTICS_WRITING_APP     : mkvmerge v8.2.0 ('World of Adventure') 64bit
_STATISTICS_WRITING_DATE_UT : 2015-07-30 06:58:03
_STATISTICS_TAGS            : BPS DURATION NUMBER_OF_FRAMES NUMBER_OF_BYTES

Video
ID                          : 1
Format                      : AVC
Format/Info                 : Advanced Video Codec
Format profile              : [email protected]
Format settings, CABAC      : Yes
Format settings, ReFrames   : 9 frames
Codec ID                    : V_MPEG4/ISO/AVC
Duration                    : 1h 49mn
Bit rate                    : 10 000 Kbps
Width                       : 1 280 pixels
Height                      : 720 pixels
Display aspect ratio        : 16:9
Frame rate mode             : Constant
Frame rate                  : 23.976 fps
Color space                 : YUV
Chroma subsampling          : 4:2:0
Bit depth                   : 8 bits
Scan type                   : Progressive
Bits/(Pixel*Frame)          : 0.453
Stream size                 : 7.46 GiB (82%)
Title                       : Закон Доблесті / Act of Valor (2012) 720p [IRONCLUB]
Writing library             : core 120 r2164 da19765
Encoding settings           : cabac=1 / ref=9 / deblock=1:-3:-3 / analyse=0x3:0x113 / me=umh / subme=11 / psy=1 / psy_rd=1.00:0.00 / mixed_ref=1 / me_range=64 / chroma_me=1 / trellis=2 / 8x8dct=1 / cqm=0 / deadzone=21,11 / fast_pskip=0 / chroma_qp_offset=-2 / threads=12 / sliced_threads=0 / nr=0 / decimate=1 / interlaced=0 / bluray_compat=0 / constrained_intra=0 / bframes=8 / b_pyramid=2 / b_adapt=2 / b_bias=0 / direct=3 / weightb=1 / open_gop=0 / weightp=2 / keyint=250 / keyint_min=23 / scenecut=40 / intra_refresh=0 / rc_lookahead=40 / rc=2pass / mbtree=1 / bitrate=10000 / ratetol=1.0 / qcomp=0.60 / qpmin=10 / qpmax=69 / qpstep=4 / cplxblur=20.0 / qblur=0.5 / vbv_maxrate=50000 / vbv_bufsize=62500 / nal_hrd=none / ip_ratio=1.40 / aq=1:1.00
Language                    : English
Default                     : Yes
Forced                      : Yes
Color range                 : Limited
Matrix coefficients         : BT.709
DURATION                    : 01:49:29.730000000
NUMBER_OF_FRAMES            : 157516
NUMBER_OF_BYTES             : 8203064403
_STATISTICS_WRITING_APP     : mkvmerge v8.2.0 ('World of Adventure') 64bit
_STATISTICS_WRITING_DATE_UT : 2015-07-30 06:58:03
_STATISTICS_TAGS            : BPS DURATION NUMBER_OF_FRAMES NUMBER_OF_BYTES

Audio #1
ID                          : 2
Format                      : AC-3
Format/Info                 : Audio Coding 3
Mode extension              : CM (complete main)
Format settings, Endianness : Big
Codec ID                    : A_AC3
Duration                    : 1h 49mn
Bit rate mode               : Constant
Bit rate                    : 192 Kbps
Channel(s)                  : 2 channels
Channel positions           : Front: L R
Sampling rate               : 48.0 KHz
Compression mode            : Lossy
Stream size                 : 150 MiB (2%)
Title                       : MVO [2+2] 2.0 192 kbps [Hurtom-Arsenfpu]
Language                    : Ukrainian
Default                     : Yes
Forced                      : Yes

Audio #2
ID                          : 3
Format                      : AC-3
Format/Info                 : Audio Coding 3
Mode extension              : CM (complete main)
Format settings, Endianness : Big
Codec ID                    : A_AC3
Duration                    : 1h 49mn
Bit rate mode               : Constant
Bit rate                    : 192 Kbps
Channel(s)                  : 2 channels
Channel positions           : Front: L R
Sampling rate               : 48.0 KHz
Compression mode            : Lossy
Stream size                 : 150 MiB (2%)
Title                       : DVO [UAVoice] 2.0 192 kbps [Hurtom-BOOGud]
Language                    : Ukrainian
Default                     : No
Forced                      : No

Audio #3
ID                          : 4
Format                      :
Format/Info                 : Digital Theater Systems
Mode                        : 16
Format settings, Endianness : Big
Codec ID                    : A_DTS
Duration                    : 1h 49mn
Bit rate mode               : Constant
Bit rate                    : 1 509 Kbps
Channel(s)                  : 6 channels
Channel positions           : Front: L C R, Side: L R, LFE
Sampling rate               : 48.0 KHz
Bit depth                   : 16 bits
Compression mode            : Lossy
Stream size                 : 1.15 GiB (13%)
Title                       : Original 5.1 1536 kbps
Language                    : English
Default                     : No
Forced                      : No

Text #1
ID                          : 5
Format                      : UTF-8
Codec ID                    : S_TEXT/UTF8
Codec ID/Info               : UTF-8 Plain Text
Title                       : Ukr full [UAVoice-BOOGud]
Language                    : Ukrainian
Default                     : No
Forced                      : No

Text #2
ID                          : 6
Format                      : UTF-8
Codec ID                    : S_TEXT/UTF8
Codec ID/Info               : UTF-8 Plain Text
Title                       : Eng full
Language                    : English
Default                     : No
Forced                      : No

Menu
00:00:00.000                : en:00:00:00.000
00:04:09.165                : en:00:04:09.165
00:07:58.895                : en:00:07:58.895
00:13:09.997                : en:00:13:09.997
00:16:47.006                : en:00:16:47.006
00:22:23.258                : en:00:22:23.258
00:26:31.631                : en:00:26:31.631
00:30:12.143                : en:00:30:12.143
00:35:33.756                : en:00:35:33.756
00:41:14.305                : en:00:41:14.305
00:46:31.622                : en:00:46:31.622
00:50:43.999                : en:00:50:43.999
00:55:18.815                : en:00:55:18.815
01:00:06.603                : en:01:00:06.603
01:07:15.573                : en:01:07:15.573
01:14:25.002                : en:01:14:25.002
01:21:47.277                : en:01:21:47.277
01:31:53.132                : en:01:31:53.132
01:49:28.770                : en:01:49:28.770


Код:
[info]: profile High, level 4.1
[info]: frame I:1252 Avg QP:16.10 size:123477
[info]: frame P:38060 Avg QP:17.29 size: 69509
[info]: frame B:118204 Avg QP:18.59 size: 45709
[info]: consecutive B-frames: 4.0% 3.7% 8.9% 22.7% 15.4% 38.6% 4.1% 1.0% 1.5%




Джерела та подяки: &
ріп відео, оригінальні звук - IRONCLUB; українські доріжки - 1) Arsenfpu, 2) BOOGud; українські субтитри - BOOGud, українізовані постери - Данило Земляний (juicifer) (всі - Гуртом).


ЗАЛИШАЙТЕСЬ ЯКОМОГА ДОВШЕ НА РОЗДАЧІ!

СКАЧАВ САМ - ДАЙ СКАЧАТИ ІНШИМ


Авторський реліз (завантажувати можна без реєстрації)
 Трекер:    Зареєстрований   

Завантажити / скачати фільм українською



відео для новачків



 Зареєстрований:   2015-07-30 15:56
 Розмір:   9.09 GB 
 Оцінка фільму:   5.6/10 (Голосів: 21)
   
Інші релізи
   Закон Доблесті / Act of Valor (2012) Arsenfpu  1 / 0   1.64 GB   2015-07-28 23:22 
   Закон Доблесті / Act of Valor (2012) 2xUkr/Eng | Sub Ukr/Eng BOOGud  1 / 0   2.14 GB   2013-03-08 15:47 
Ua.bos_01 
VIP


З нами з: 22.06.15
Востаннє: 03.12.16
Повідомлень: 1290

2015-08-15 22:05  
Один з найкращих фільм про війну сучасності!
Ваш часовий пояс: GMT + 2 Години

Нова тема   Відповісти