Завантажити та скачати торренти українською


Праведник / The Equalizer (2014) 720p-mini

Нові коментарі

Нова тема   Відповісти
Автор Повідомлення
Drool 
VIP


З нами з: 17.04.10
Востаннє: 05.12.16
Повідомлень: 1262

2015-07-29 07:43  
Праведник / The Equalizer (2014) 720p-mini

Жанр: трилер, бойовик, кримінальний
Країна: США



Кінокомпанія: Columbia Pictures, Escape Artists, Lionsgate, Lonetree Entertainment, LStar Capital, Mace Neufeld Productions, Village Roadshow Pictures
Режисер: Антуан Фукуа
Актори: Дензел Вашинґтон, Мартон Чокаш, Хлоя Ґрейс Морец, Девід Харбор, Хейлі Беннетт, Білл Пуллман, Мелісса Лео, Девід Мюньє, Джонні Скуртіс, Алекс Видів

Сюжет:
Роберт Макколл - колишній спецназівець. Після звільнення зі служби він збирається почати нормальне мирне життя, давши собі обіцянку, більше ніколи не брати в руки зброї. Але в один прекрасний момент він зустрічає молоду дівчину, яка заробляє на життя проституцією, яку на його очах б'ють бандити і відвозять у невідомому напрямку. Тоді він вирішує відшукати її, після чого вступає в нерівну сутичку з російською мафією і продажними агентами ЦРУ. Заради справедливості він готовий порушити власну обіцянку і застосувати зброю проти людей, які просто не заслуговують жити в цьому світі ...


Тривалість: 02:12:03
Якість: 720p-mini
Відео:
кодек:
розмір кадру: 1280x534
бітрейт: 2469 кб/с

Аудіо:
мова: українська
переклад: професійний дубльований
кодек: 5.1
бітрейт: 448 кб/с

Джерело озвучення:


Субтитри:
мова: українська
тип: програмні (м'які, форсовані) написи
формат: *.srt
MediaInfo
General
Unique ID : 326529352939270932806161591046676868943 (0xF5A7440F0DF1E5DA867D465BB166EF4F)
Complete name : /mnt/disk_d/Video/The.Equalizer.2014.Ukr.Dub.720p-mini.mkv
Format : Matroska
Format version : Version 4 / Version 2
File size : 2.74 GiB
Duration : 2h 12mn
Overall bit rate : 2 975 Kbps
Movie name : Праведник / The Equalizer (2014) 720p-mini (by Leonardo)
Encoded date : UTC 2015-07-29 06:06:57
Writing application : mkvmerge v8.1.0 ('Psychedelic Postcard') 64bit
Writing library : libebml v1.3.1 + libmatroska v1.4.2
Attachements : cover.jpg
DURATION : 02:06:00.328000000
NUMBER_OF_FRAMES : 15
NUMBER_OF_BYTES : 564
_STATISTICS_WRITING_APP : mkvmerge v8.1.0 ('Psychedelic Postcard') 64bit
_STATISTICS_WRITING_DATE_UTC : 2015-07-29 06:06:57
_STATISTICS_TAGS : BPS DURATION NUMBER_OF_FRAMES NUMBER_OF_BYTES

Video
ID : 1
Format : AVC
Format/Info : Advanced Video Codec
Format profile : [email protected]
Format settings, CABAC : Yes
Format settings, ReFrames : 9 frames
Codec ID : V_MPEG4/ISO/AVC
Duration : 2h 12mn
Bit rate : 2 468 Kbps
Width : 1 280 pixels
Height : 534 pixels
Display aspect ratio : 2.40:1
Frame rate mode : Constant
Frame rate : 23.976 fps
Color space : YUV
Chroma subsampling : 4:2:0
Bit depth : 8 bits
Scan type : Progressive
Bits/(Pixel*Frame) : 0.151
Stream size : 2.28 GiB (83%)
Title : Праведник / The Equalizer (2014) 720p-mini
Writing library : core 125 r2208 d9d2288
Encoding settings : cabac=1 / ref=9 / deblock=1:-3:-3 / analyse=0x3:0x133 / me=umh / subme=11 / psy=1 / psy_rd=1.00:0.00 / mixed_ref=1 / me_range=32 / chroma_me=1 / trellis=2 / 8x8dct=1 / cqm=0 / deadzone=21,11 / fast_pskip=0 / chroma_qp_offset=-2 / threads=12 / lookahead_threads=2 / sliced_threads=0 / nr=0 / decimate=1 / interlaced=0 / bluray_compat=0 / constrained_intra=0 / bframes=8 / b_pyramid=2 / b_adapt=2 / b_bias=0 / direct=1 / weightb=1 / open_gop=0 / weightp=2 / keyint=250 / keyint_min=23 / scenecut=40 / intra_refresh=0 / rc=crf / mbtree=0 / crf=18.0 / qcomp=0.60 / qpmin=0 / qpmax=69 / qpstep=4 / ip_ratio=1.10 / pb_ratio=1.10 / aq=1:1.00
Default : Yes
Forced : Yes
DURATION : 02:12:02.915000000
NUMBER_OF_FRAMES : 189960
NUMBER_OF_BYTES : 2501088258
_STATISTICS_WRITING_APP : mkvmerge v8.1.0 ('Psychedelic Postcard') 64bit
_STATISTICS_WRITING_DATE_UTC : 2015-07-29 06:06:57
_STATISTICS_TAGS : BPS DURATION NUMBER_OF_FRAMES NUMBER_OF_BYTES

Audio
ID : 2
Format : AC-3
Format/Info : Audio Coding 3
Mode extension : CM (complete main)
Format settings, Endianness : Big
Codec ID : A_AC3
Duration : 2h 12mn
Bit rate mode : Constant
Bit rate : 448 Kbps
Channel(s) : 6 channels
Channel positions : Front: L C R, Side: L R, LFE
Sampling rate : 48.0 KHz
Bit depth : 16 bits
Compression mode : Lossy
Stream size : 423 MiB (15%)
Title : Рідна мова ( 5.1, 448 kbps)
Language : Ukrainian
Default : Yes
Forced : Yes

Text
ID : 3
Format : UTF-8
Codec ID : S_TEXT/UTF8
Codec ID/Info : UTF-8 Plain Text
Title : Українські (форсовані, написи)
Language : Ukrainian
Default : Yes
Forced : Yes
Скріншоти




Джерело:
Особиста оцінка: 10 - без зайвих вагань рекомендую всім!


 Трекер:    Зареєстрований   

Завантажити / скачати фільм українською



відео для новачків



 Зареєстрований:   2015-07-29 09:30
 Розмір:   2.74 GB 
 Оцінка фільму:   9.9/10 (Голосів: 22)
   
Інші релізи
   Праведник / The Equalizer (2014) [640 x 270] DmitryA  3 / 0   1.11 GB   2015-08-06 15:59 
   Праведник / The Equalizer (2014) Blu-ray CEE Multi | Sub Multi smak2001  2 / 0   40.28 GB   2014-12-19 11:25 
   Праведник / The Equalizer (2014) patriot2305  22 / 0   1.46 GB   2014-12-18 19:37 
   Праведник / The Equalizer (2014) 1080p Ukr/Eng | Sub Eng 11FrYkT  4 / 0   10.1 GB   2014-12-18 18:10 
   Праведник / The Equalizer (2014) AVC patriot2305  7 / 0   2.7 GB   2014-12-18 17:45 
   Праведник / The Equalizer (2014) 720p Ukr/Eng | Sub Eng 11FrYkT  11 / 0   5.12 GB   2014-12-18 17:29 
   Праведник / The Equalizer (2014) Gelios  10 / 0   2.18 GB   2014-12-18 16:13 
bot 
робот


З нами з: 30.09.07
Востаннє: 26.05.05
Повідомлень: 15994

2015-07-29 07:44  
Тему перенесено з Фільми в HD до форуму Анонси релізів


Drool

bot 
робот


З нами з: 30.09.07
Востаннє: 26.05.05
Повідомлень: 15994

2015-07-29 09:29  
Тему перенесено з Анонси релізів до форуму Фільми в HD


Drool

MrRyanCooper 
VIP


З нами з: 23.08.12
Востаннє: 03.12.16
Повідомлень: 280

2016-02-06 22:41  
Реально бомбове кіно, не очікував.
P.S. Срані росіяни хай жруть гамно! :-)

Ваш часовий пояс: GMT + 2 Години

Нова тема   Відповісти