Завантажити та скачати торренти українською


Неймовірні пригоди Білла і Теда / Bill & Ted's Excellent Adventure (1989) Ukr/Eng | Sub Eng/Spa/Fre

Нові коментарі

Нова тема   Відповісти
Автор Повідомлення
Anonymous 







2015-07-26 21:46  
Неймовірні пригоди Білла і Теда / Bill & Ted's Excellent Adventure (1989) Ukr/Eng | Sub Eng/Spa/Fre



Альтернативні обкладинки та постери








повнорозмірні зображення відкриються по кліку (з натиснутим CTRL чи кліком середньою кнопкою мишки - у іншій вкладці)


Жанр: пригодницький, комедія, фантастика
Країна: США



Кінокомпанія: De Laurentiis Entertainment Group (DEG), De Laurentiis Film Partners, Interscope Communications, Nelson Entertainment, Soisson/Murphey Productions
Режисер: Стефан Херек / Stephen Herek
Актори: Кіану Рівз / Keanu Reeves, Алекс Вінтер / Alex Winter, Джордж Карлін / George Carlin, Террі Каміллері / Terry Camilleri, Ден Шор / Dan Shor, Тоні Стідман / Tony Steedman, Джейн Вайдлін / Jane Wiedlin, Род Луміс / Rod Loomis, Гел Лендон мол. / Hal Landon Jr.та інші

Сюжет:
Каліфорнійські школярі Біл і Тед занадто пізно усвідомлюють, що їхні мрії про рок-гурт летять шкереберть, якщо вони не складуть іспит з історії та не зроблять доповідь на тему «Сучасний світ очима видатної історичної особистості».

На щастя школярів-рокерів, їм допомагає Руфус - посланець з майбутнього на машині часу. З її допомогою Білл і Тед не тільки подорожують у минулому, але й переносять звідти багато історичних діячів.


Рейтинг MPAA: PG - рекомендується присутність батьків
Вікова категорія: 12+

Тривалість: 01:29:51
Якість:
Відео:
кодек: build 65
розмір кадру: 720 х 304
бітрейт: 1920 кбіт/с

Аудіо # 1:
мова: українська
переклад: багатоголосий закадровий - студія "Мова"
кодек: 2.0
бітрейт: 192 кбіт/с

Аудіо # 2:
мова: англійська
переклад: оригінал
кодек: 5.1
бітрейт: 384 кбіт/с

Субтитри # 1-3: (завантажити окремо)
мова: англійська (SDH), іспанська, французька
тип: програмні (м'які)
формат: *.srt
MediaInfo
Код:
General
Complete name               : Bill & Ted's Excellent Adventure (1989) [Ukr,Eng] [Hurtom].avi
Format                      : AVI
Format/Info                 : Audio Video Interleave
File size                   : 1.58 GiB
Duration                    : 1h 29mn
Overall bit rate            : 2 510 Kbps
Movie name                  : Неймовірні пригоди Білла і Теда / Bill & Ted's Excellent Adventure (1989)
Director                    : igor911 & sociolog_melvas
Genre                       : фантастика, комедія, пригоди
Writing application         : VirtualDubModRus 1.5.10.2 (build 2540/release)
Copyright                   : Hurtom & HQClub
Comment                     : 26.07.2015

Video
ID                          : 0
Format                      : MPEG-4 Visual
Format profile              : Advanced [email protected]
Format settings, BVOP       : 1
Format settings, QPel       : No
Format settings, GMC        : No warppoints
Format settings, Matrix     : Custom
Codec ID                    :
Codec ID/Hint               :
Duration                    : 1h 29mn
Bit rate                    : 1 920 Kbps
Width                       : 720 pixels
Height                      : 304 pixels
Display aspect ratio        : 2.35:1
Frame rate                  : 23.976 fps
Color space                 : YUV
Chroma subsampling          : 4:2:0
Bit depth                   : 8 bits
Scan type                   : Progressive
Compression mode            : Lossy
Bits/(Pixel*Frame)          : 0.366
Stream size                 : 1.21 GiB (76%)
Writing library             : 65

Audio #1
ID                          : 1
Format                      : AC-3
Format/Info                 : Audio Coding 3
Mode extension              : CM (complete main)
Format settings, Endianness : Big
Codec ID                    : 2000
Duration                    : 1h 29mn
Bit rate mode               : Constant
Bit rate                    : 192 Kbps
Channel(s)                  : 2 channels
Channel positions           : Front: L R
Sampling rate               : 48.0 KHz
Compression mode            : Lossy
Stream size                 : 123 MiB (8%)
Alignment                   : Split accross interleaves
Interleave, duration        : 42 ms (1.00 video frame)
Interleave, preload duratio : 500 ms

Audio #2
ID                          : 2
Format                      : AC-3
Format/Info                 : Audio Coding 3
Mode extension              : CM (complete main)
Format settings, Endianness : Big
Codec ID                    : 2000
Duration                    : 1h 29mn
Bit rate mode               : Constant
Bit rate                    : 384 Kbps
Channel(s)                  : 6 channels
Channel positions           : Front: L C R, Side: L R, LFE
Sampling rate               : 48.0 KHz
Compression mode            : Lossy
Stream size                 : 247 MiB (15%)
Alignment                   : Split accross interleaves
Interleave, duration        : 42 ms (1.00 video frame)
Interleave, preload duratio : 500 ms




Джерела та подяки: &
українська доріжка - NemoInFire - зведення, Hulk1987 - запис з ТБ, igor911 - синхронізація під BD; фільмографія Кіану Рівза - Віктор (всі - Гуртом).





ЗАЛИШАЙТЕСЬ ЯКОМОГА ДОВШЕ НА РОЗДАЧІ!

СКАЧАВ САМ - ДАЙ СКАЧАТИ ІНШИМ


Срібний реліз (на рейтинг впливає 50% завантаженого)
 Трекер:    Зареєстрований   

Завантажити / скачати фільм українською



відео для новачків



 Зареєстрований:   2015-07-26 21:46
 Розмір:   1.58 GB 
 Оцінка фільму:   3.6/10 (Голосів: 14)
   
usibat2015 
Свій


З нами з: 20.10.15
Востаннє: 10.12.16
Повідомлень: 53

2016-05-29 13:28  
Класний фільм дивився в перекладі від нло тв 29,05,2016
Anonymous 







2016-05-29 13:34  
usibat2015, як завантажиш, напиши, будь ласка, чи переклади цей (Україна) та НЛО ідентичні чи ні.
Ваш часовий пояс: GMT + 2 Години

Нова тема   Відповісти