Завантажити та скачати торренти українською


Кафе де Флор / Café de Flore (2011) 720p Fra | sub Ukr/Eng

Нові коментарі

Нова тема   Відповісти
Автор Повідомлення
Леля22 
Попереджень: 2
Попереджень: 2 


З нами з: 22.07.15
Востаннє: 15.01.17
Повідомлень: 697

2015-07-26 21:15  
Кафе де Флор / Café de Flore (2011) 720p Fra | sub Ukr/Eng

Кафе де Флор / Café de Flore (2011) 720p Fra | sub Ukr/Eng


Жанр: драма, романтичний
Країна: Канада, Франція



Кінокомпанія: Item 7, Monkey Pack Films, Banque Postale Image 4, Canal+, Ciné+, Coficup, Crazy Films, Soficinéma 7.
Автор сценарію і режисер: Жан-Марк Валле (Jean-Marc Vallée).
В ролях: Ванесса Параді (Vanessa Paradis); Кевін Парент (Kevin Parent); Елен Флоран (Hélène Florent); Евелін Брошу (Evelyne Brochu); Марен Ґер’є (Marin Gerrier); Еліс Дюбуа (Alice Dubois); Евелін де ла Шенел’єр (Evelyne de la Chenelière); Мішель Дюмон (Michel Dumont); Лінда Сміт (Linda Smith); Жоанні Корбей-Піше (Joanny Corbeil-Picher); Розалі Форт’є (Rosalie Fortier); Мішель Лапер’єр (Michel Laperrière); Еммануелль Боґран-Шампань (Emmanuelle Beaugrand-Champagne); Паскаль Елсо (Pascal Elso) та інші.

Сюжет: Історія кохання між чоловіком і жінкою. І між матір’ю та її сином. Містична і фантастична одіссея кохання…

Слоган фільму: Нелегко прощатися з тими, кого любимо; щоб цього досягти, інколи потрібне все життя – або два». («Il n'est pas facile de dire adieu à ceux qu'on aime; pour y parvenir, il faut parfois toute une vie - ou deux».)
Трохи пояснень:

- джетсеттери – соціальна група заможних людей, елітних тусовщиків-мандрівників, які відвідують ті місця, куди звичайним людям зась. Термін походить від способу життя джетсеттерів, що пов’язаний з частими перельотами реактивними (jet) літаками.

- бімбо – американський ярлик для сексапільних, не надто розумних дівчат, стурбованих пошуком відповідного «кадра».

- близнюкове полум'я. Близнюковим полум’ям в езотеричних колах називають дві половинки одного цілого; дві споріднені душі, що мають з’єднатись в одне ціле.

- обсессії – нав’язливі думки, ідеї, уявлення, що заважають людині або лякають її.
Ще цікава інформація (музична):
1. Назва фільму відсилає нас не до знаменитого паризького кафе Cafe de Flore, відомого своєю інтелектуальною і творчою публікою, а до однойменної музичної композиції виконавця Doctor Rockit. Пісня «Кафе…» пов’язує всі сюжетні лінії фільму.

Насправді, Doctor Rockit не є автором пісні «Кафе де Флор». Ця пісня була першою на платівці «Music To Remember Her» («Музика, Щоб Пам’ятати Її), і саме її слухав хлопчик Лоран у далекому 1969-ому році. Doctor Rockit (а за фільмом – Антуан) просто дав цій пісні ‘60-х років нове життя.

2. Пісня, слова з якої Жаклін часто наспівувала Лорану, називається «J'irai la voir un jour» («Я побачу її одного дня»). «На небесах, на небесах, на небесах я побачу її одного дня…». Це традиційний католицький гімн на честь Діви Марії.
Саундтреки до фільму:
1. Cafe Del Mare - Paris Lounge
2. Creedence Clearwater Revival - Walking On The Water
3. Dinah Washington - What A Difference A Day Makes
4. Doctor Rockit - Cafe De Flore
5. Elisapie Isaac - Navvaatara
6. Nine Inch Nails - Corona Radiata
7. Pink Floyd - Breathe in the Air
8. Pink Floyd - The Great Gig In The Sky
9. Pink Floyd - Time [2011 - Remaster]
10. Sigur Ros - Andvari
11. Sigur Ros - Fljotavik
12. Sigur Ros - Svefn-G-Englar
13. Sophie Hunger - Le vent nous portera
14. Stars of the Lid - A Meaningful Moment Through a Meaningless Process
15. The Cure - Just Like Heaven (acoustic)
16. The Cure - Pictures Of You
17. The Matthew Herbert Big Band - Cafe De Flore
Завантажити пісні можна, наприклад, на екс.*а (Café de Flore Ost)

Тривалість: 02:00:46
Якість: BRRip
Відео:
кодек:
розмір кадру: 1280 х 544
бітрейт: 2 992 кб/с

Аудіо:
мови: французька, англійська
переклад: оригінал
кодек: 5.1
бітрейт: 448 кб/с

Субтитри 1:
мова: українська
тип: програмні (м'які)
формат: *.srt

Субтитри 2:
мова: англійська
тип: програмні (м'які)
формат: *.srt

з англійської мови переклала (+ звірялася з оригінальними субтитрами)Леля22
Скріншоти












MediaInfo

General
Format : AVI
Format/Info : Audio Video Interleave
Format profile : OpenDML
File size : 2.91 GiB
Duration : 2h 0mn
Overall bit rate : 3 450 Kbps
Writing application : VirtualDubMod 1.5.10.2 (build 2540/release)
Writing library : VirtualDubMod build 2540/release

Video
ID : 0
Format : MPEG-4 Visual
Format profile : Advanced [email protected]
Format settings, BVOP : 2
Format settings, QPel : No
Format settings, GMC : No warppoints
Format settings, Matrix : Default (H.263)
Codec ID :
Codec ID/Hint :
Duration : 2h 0mn
Bit rate : 2 992 Kbps
Width : 1 280 pixels
Height : 544 pixels
Display aspect ratio : 2.35:1
Frame rate : 23.976 fps
Color space : YUV
Chroma subsampling : 4:2:0
Bit depth : 8 bits
Scan type : Progressive
Compression mode : Lossy
Bits/(Pixel*Frame) : 0.179
Stream size : 2.52 GiB (87%)
Writing library : 1.2.1 (UTC 2008-12-04)

Audio
ID : 1
Format : AC-3
Format/Info : Audio Coding 3
Mode extension : CM (complete main)
Format settings, Endianness : Big
Codec ID : 2000
Duration : 2h 0mn
Bit rate mode : Constant
Bit rate : 448 Kbps
Channel(s) : 6 channels
Channel positions : Front: L C R, Side: L R, LFE
Sampling rate : 48.0 KHz
Compression mode : Lossy
Stream size : 387 MiB (13%)
Alignment : Split accross interleaves
Interleave, duration : 42 ms (1.00 video frame)
Interleave, preload duratio : 500 ms
Джерело:
Особиста оцінка:
10 – гарний фільм і чудовий музичний супровід.


Фріліч (завантажене не впливає на рейтинг)
 Трекер:    Зареєстрований   

Завантажити / скачати фільм українською



відео для новачків



 Зареєстрований:   2015-08-09 15:54
 Розмір:   2.91 GB 
 Оцінка фільму:   10/10 (Голосів: 4)
   
jobbynov 
Новенький


З нами з: 24.10.15
Востаннє: 16.06.16
Повідомлень: 1

2015-10-28 21:43  
Файлик з українськими субтитрами битий: щось з кодуванням. Я виправив, як його додати?
svito4ka 
Новенький


З нами з: 09.03.13
Востаннє: 17.07.16
Повідомлень: 22

2015-12-10 21:52  
Це просто неймовірно прекрасний фільм, який одного вечора вразив мене до глибини душі, що потім я його дивилася ще, і ще, а потім просто вмикала улюблені моментиHappy
фільм, щоб подумати, поплакати і повірити в любов та прекрасну дивність життя.

galari 
Частий відвідувач


З нами з: 04.03.11
Востаннє: 08.01.17
Повідомлень: 34

2016-04-12 19:45  
відкрийте будь ласка
vit_ua 
Новенький


З нами з: 28.07.09
Востаннє: 15.01.17
Повідомлень: 7

2016-06-11 16:37  
станьте, будь ласка, на роздачу хто-небудь.
дякую!

Ваш часовий пояс: GMT + 2 Години

Нова тема   Відповісти