Завантажити та скачати торренти українською


Неймовірні пригоди Білла і Теда / Bill & Ted's Excellent Adventure (1989) 720p Ukr/Eng | Sub Eng/Spa/Fre

Нові коментарі

Нова тема   Відповісти
Автор Повідомлення
Anonymous 







2015-07-26 19:57  
Неймовірні пригоди Білла і Теда / Bill & Ted's Excellent Adventure (1989) 720p Ukr/Eng | Sub Eng/Spa/Fre



Альтернативні обкладинки та постери








повнорозмірні зображення відкриються по кліку (з натиснутим CTRL чи кліком середньою кнопкою мишки - у іншій вкладці)


Жанр: пригодницький, комедія, фантастика
Країна: США



Кінокомпанія: De Laurentiis Entertainment Group (DEG), De Laurentiis Film Partners, Interscope Communications, Nelson Entertainment, Soisson/Murphey Productions
Режисер: Стефан Херек / Stephen Herek
Актори: Кіану Рівз / Keanu Reeves, Алекс Вінтер / Alex Winter, Джордж Карлін / George Carlin, Террі Каміллері / Terry Camilleri, Ден Шор / Dan Shor, Тоні Стідман / Tony Steedman, Джейн Вайдлін / Jane Wiedlin, Род Луміс / Rod Loomis, Гел Лендон мол. / Hal Landon Jr.та інші

Сюжет:
Каліфорнійські школярі Біл і Тед занадто пізно усвідомлюють, що їхні мрії про рок-гурт летять шкереберть, якщо вони не складуть іспит з історії та не зроблять доповідь на тему «Сучасний світ очима видатної історичної особистості».

На щастя школярів-рокерів, їм допомагає Руфус - посланець з майбутнього на машині часу. З її допомогою Білл і Тед не тільки подорожують у минулому, але й переносять звідти багато історичних діячів.


Рейтинг MPAA: PG - рекомендується присутність батьків
Вікова категорія: 12+

Тривалість: 01:29:51
Якість: 720p [EbP]
Відео:
кодек:
розмір кадру: 1280 х 546
бітрейт: 7602 кбіт/с [crf=16]

Аудіо # 1:
мова: українська
переклад: багатоголосий закадровий - студія "Мова"
кодек: 2.0
бітрейт: 192 кбіт/с

Аудіо # 2:
мова: англійська
переклад: оригінал
кодек: 5.1
бітрейт: 640 кбіт/с

Субтитри # 1-3:
мова: англійська (SDH), іспанська, французька
тип: програмні (м'які)
формат: *.srt

Збережено оригінальні розділи, як на Blu-ray.
MediaInfo
Код:
General
Unique ID                   : 184100483742904407768180908110783322030 (0x8A8076A41CE461928960338AB49A17AE)
Complete name               : Bill & Ted's Excellent Adventure (1989) [Ukr,Eng sub.Multi] 720p [Hurtom].mkv
Format                      : Matroska
Format version              : Version 4 / Version 2
File size                   : 5.40 GiB
Duration                    : 1h 29mn
Overall bit rate            : 8 605 Kbps
Movie name                  : Неймовірні пригоди Білла і Теда / Bill & Ted's Excellent Adventure (1989) [Hurtom]
Encoded date                : UTC 2015-07-26 16:19:31
Writing application         : mkvmerge v8.2.0 ('World of Adventure') 64bit
Writing library             : libebml v1.3.1 + libmatroska v1.4.2
Attachements                : cover.jpg
DURATION                    : 01:29:51.392000000
NUMBER_OF_FRAMES            : 168481
NUMBER_OF_BYTES             : 129393408
_STATISTICS_WRITING_APP     : mkvmerge v8.2.0 ('World of Adventure') 64bit
_STATISTICS_WRITING_DATE_UT : 2015-07-26 16:19:31
_STATISTICS_TAGS            : BPS DURATION NUMBER_OF_FRAMES NUMBER_OF_BYTES

Video
ID                          : 1
Format                      : AVC
Format/Info                 : Advanced Video Codec
Format profile              : [email protected]
Format settings, CABAC      : Yes
Format settings, ReFrames   : 11 frames
Codec ID                    : V_MPEG4/ISO/AVC
Duration                    : 1h 29mn
Bit rate                    : 7 602 Kbps
Width                       : 1 280 pixels
Height                      : 546 pixels
Display aspect ratio        : 2.35:1
Frame rate mode             : Constant
Frame rate                  : 23.976 fps
Color space                 : YUV
Chroma subsampling          : 4:2:0
Bit depth                   : 8 bits
Scan type                   : Progressive
Bits/(Pixel*Frame)          : 0.454
Stream size                 : 4.77 GiB (88%)
Title                       : Неймовірні пригоди Білла і Теда / Bill & Ted's Excellent Adventure (1989) 720p [EbP]
Writing library             : core 128 r2216 198a7ea
Encoding settings           : cabac=1 / ref=11 / deblock=1:-3:-3 / analyse=0x3:0x113 / me=tesa / subme=9 / psy=1 / psy_rd=1.15:0.00 / mixed_ref=1 / me_range=16 / chroma_me=1 / trellis=2 / 8x8dct=1 / cqm=0 / deadzone=21,11 / fast_pskip=0 / chroma_qp_offset=-2 / threads=12 / lookahead_threads=2 / sliced_threads=0 / nr=0 / decimate=0 / interlaced=0 / bluray_compat=0 / constrained_intra=0 / bframes=7 / b_pyramid=2 / b_adapt=2 / b_bias=0 / direct=3 / weightb=1 / open_gop=0 / weightp=2 / keyint=250 / keyint_min=23 / scenecut=40 / intra_refresh=0 / rc=crf / mbtree=0 / crf=16.0 / qcomp=0.70 / qpmin=0 / qpmax=69 / qpstep=4 / ip_ratio=1.40 / pb_ratio=1.30 / aq=1:0.65
Language                    : English
Default                     : Yes
Forced                      : Yes
Color range                 : Limited
Matrix coefficients         : BT.709
DURATION                    : 01:29:51.345000000
NUMBER_OF_FRAMES            : 129263
NUMBER_OF_BYTES             : 5236315487
_STATISTICS_WRITING_APP     : mkvmerge v8.2.0 ('World of Adventure') 64bit
_STATISTICS_WRITING_DATE_UT : 2015-07-26 16:19:31
_STATISTICS_TAGS            : BPS DURATION NUMBER_OF_FRAMES NUMBER_OF_BYTES

Audio #1
ID                          : 2
Format                      : AC-3
Format/Info                 : Audio Coding 3
Mode extension              : CM (complete main)
Format settings, Endianness : Big
Codec ID                    : A_AC3
Duration                    : 1h 29mn
Bit rate mode               : Constant
Bit rate                    : 192 Kbps
Channel(s)                  : 2 channels
Channel positions           : Front: L R
Sampling rate               : 48.0 KHz
Compression mode            : Lossy
Stream size                 : 123 MiB (2%)
Title                       : DVO [Mova-Ukraina] 2.0 192 kbps [Hurtom-NemoInFire]
Language                    : Ukrainian
Default                     : Yes
Forced                      : Yes

Audio #2
ID                          : 3
Format                      : AC-3
Format/Info                 : Audio Coding 3
Mode extension              : CM (complete main)
Format settings, Endianness : Big
Codec ID                    : A_AC3
Duration                    : 1h 29mn
Bit rate mode               : Constant
Bit rate                    : 640 Kbps
Channel(s)                  : 6 channels
Channel positions           : Front: L C R, Side: L R, LFE
Sampling rate               : 48.0 KHz
Compression mode            : Lossy
Stream size                 : 411 MiB (7%)
Title                       : Original 5.1 640 kbps
Language                    : English
Default                     : No
Forced                      : No

Text #1
ID                          : 4
Format                      : UTF-8
Codec ID                    : S_TEXT/UTF8
Codec ID/Info               : UTF-8 Plain Text
Title                       : English
Language                    : English
Default                     : No
Forced                      : No

Text #2
ID                          : 5
Format                      : UTF-8
Codec ID                    : S_TEXT/UTF8
Codec ID/Info               : UTF-8 Plain Text
Title                       : Spanish
Language                    : Spanish
Default                     : No
Forced                      : No

Text #3
ID                          : 6
Format                      : UTF-8
Codec ID                    : S_TEXT/UTF8
Codec ID/Info               : UTF-8 Plain Text
Title                       : French
Language                    : French
Default                     : No
Forced                      : No

Menu
00:00:00.000                : en:1. Main Title/Stallyns
00:04:43.158                : en:2. History Challenge
00:09:34.365                : en:3. The Future Calls
00:17:06.859                : en:4. Cicuits of History
00:23:38.917                : en:5. The Wild West
00:28:29.333                : en:6. Ancient Greece
00:30:45.177                : en:7. Medieval Times
00:38:40.109                : en:8. 2 Headless Dudes
00:41:16.516                : en:9. Party On, Dudes
00:45:56.963                : en:10. Gather the Troops
00:52:18.427                : en:11. Patchwork
00:55:30.285                : en:12. San Dimas
01:01:32.147                : en:13. Mall Trouble
01:07:18.493                : en:14. Prison Break
01:12:43.568                : en:15. History World Tour
01:21:19.833                : en:16. Jam Session/Credits




Джерела та подяки:
українська доріжка - NemoInFire - зведення, Hulk1987 - запис з ТБ, igor911 - синхронізація під BD; фільмографія Кіану Рівза - Віктор (всі - Гуртом).





ЗАЛИШАЙТЕСЬ ЯКОМОГА ДОВШЕ НА РОЗДАЧІ!

СКАЧАВ САМ - ДАЙ СКАЧАТИ ІНШИМ


Срібний реліз (на рейтинг впливає 50% завантаженого)
 Трекер:    Зареєстрований   

Завантажити / скачати фільм українською



відео для новачків



 Зареєстрований:   2015-07-26 19:57
 Розмір:   5.4 GB 
 Оцінка фільму:   4/10 (Голосів: 15)
   
Ваш часовий пояс: GMT + 2 Години

Нова тема   Відповісти