Завантажити та скачати торренти українською


Ворон-месник / Ворон / The Crow (1994) 720p Ukr/Eng | Sub Ukr/Eng

Нові коментарі

Нова тема   Відповісти
Останній раз роздавалося serjmetalist (2016-12-10)
Автор Повідомлення
serjmetalist 
Новенький


З нами з: 16.09.12
Востаннє: 10.12.16
Повідомлень: 7

2015-07-26 09:29  
Ворон-месник / Ворон / The Crow (1994) 720p Ukr/Eng | Sub Ukr/Eng

Ворон-месник / Ворон / The Crow (1994) 720p Ukr/Eng | Sub Ukr/Eng


Жанр: містика, драма, кримінальний, екшн
Країна: CША



Кінокомпанія: Dimension Films
Режисер: Алекс Прояс
Актори: Брендон Лі, Рошелль Девіс, Ерні Хадсон, Майкл Вінкотт, Бай Лін

Сюжет:
Це була похмура і страшна ніч. Ніч страшного свята Хеллоуїн. Банда вбивць, увірвавшись в будинок молодої пари, жорстоко розправилася з рок-музикантом Еріком і його нареченою Шеллі.
Через рік Ерік Дрейвен вибирається з могили і вирушає на пошуки вбивць. Чи людина він? Ангел-винищувач? Або Ворон, що прагне помсти?


Тривалість: 01:41:39
Якість: 720p
Відео:
кодек:
розмір кадру: 1280 х 694
бітрейт: 8633 кб/с

Аудіо # 1:
мова: українська
переклад: багатоголосий закадровий
кодек: 2.0
бітрейт: 192 кб/с

Аудіо # 2:
мова: англійська
переклад: оригінал
кодек: 5.1
бітрейт: 640 кб/с

Субтитри:
мова: українська
тип: програмні (м'які)
формат: *.srt
Автор: Voron16

Субтитри:
мова: англійська
тип: програмні (м'які)
формат: *.srt
MediaInfo
General
Unique ID : 248194464470656824635691347268538669434 (0xBAB883DE9C54936AA9958B98CDBB197A)
Complete name : F:\Video\Hurtom\The Crow.1994...720p_[Hurtom].mkv
Format : Matroska
Format version : Version 4 / Version 2
File size : 6.72 GiB
Duration : 1h 41mn
Overall bit rate : 9 466 Kbps
Encoded date : UTC 2015-07-25 14:17:49
Writing application : mkvmerge v8.2.0 ('World of Adventure') 64bit
Writing library : libebml v1.3.1 + libmatroska v1.4.2
DURATION : 01:33:21.220000000
NUMBER_OF_FRAMES : 871
NUMBER_OF_BYTES : 29777
_STATISTICS_WRITING_APP : mkvmerge v8.2.0 ('World of Adventure') 64bit
_STATISTICS_WRITING_DATE_UTC : 2015-07-25 14:17:49
_STATISTICS_TAGS : BPS DURATION NUMBER_OF_FRAMES NUMBER_OF_BYTES

Video
ID : 1
Format : AVC
Format/Info : Advanced Video Codec
Format profile : [email protected]
Format settings, CABAC : Yes
Format settings, ReFrames : 9 frames
Codec ID : V_MPEG4/ISO/AVC
Duration : 1h 41mn
Bit rate : 8 633 Kbps
Width : 1 280 pixels
Height : 694 pixels
Display aspect ratio : 1.85:1
Frame rate mode : Constant
Frame rate : 23.976 fps
Color space : YUV
Chroma subsampling : 4:2:0
Bit depth : 8 bits
Scan type : Progressive
Bits/(Pixel*Frame) : 0.405
Stream size : 6.00 GiB (89%)
Writing library : core 116 r2074 2641b9e
Encoding settings : cabac=1 / ref=9 / deblock=1:-3:-3 / analyse=0x3:0x113 / me=umh / subme=10 / psy=1 / psy_rd=1.30:0.00 / mixed_ref=1 / me_range=16 / chroma_me=1 / trellis=2 / 8x8dct=1 / cqm=0 / deadzone=21,11 / fast_pskip=0 / chroma_qp_offset=-2 / threads=6 / sliced_threads=0 / nr=0 / decimate=0 / interlaced=0 / bluray_compat=0 / constrained_intra=0 / bframes=7 / b_pyramid=2 / b_adapt=2 / b_bias=0 / direct=3 / weightb=1 / open_gop=0 / weightp=2 / keyint=250 / keyint_min=23 / scenecut=40 / intra_refresh=0 / rc=2pass / mbtree=0 / bitrate=8633 / ratetol=1.0 / qcomp=0.60 / qpmin=0 / qpmax=69 / qpstep=4 / cplxblur=20.0 / qblur=0.5 / ip_ratio=1.40 / pb_ratio=1.30 / aq=1:0.60
Language : English
Default : Yes
Forced : No
DURATION : 01:41:39.052000000
NUMBER_OF_FRAMES : 146231
NUMBER_OF_BYTES : 6580373375
_STATISTICS_WRITING_APP : mkvmerge v8.2.0 ('World of Adventure') 64bit
_STATISTICS_WRITING_DATE_UTC : 2015-07-25 14:17:49
_STATISTICS_TAGS : BPS DURATION NUMBER_OF_FRAMES NUMBER_OF_BYTES

Audio #1
ID : 2
Format : AC-3
Format/Info : Audio Coding 3
Mode extension : CM (complete main)
Format settings, Endianness : Big
Codec ID : A_AC3
Duration : 1h 41mn
Bit rate mode : Constant
Bit rate : 192 Kbps
Channel(s) : 2 channels
Channel positions : Front: L R
Sampling rate : 48.0 KHz
Compression mode : Lossy
Stream size : 140 MiB (2%)
Title : Многоголосый, Новый канал
Language : Ukrainian
Default : No
Forced : No

Audio #2
ID : 3
Format : AC-3
Format/Info : Audio Coding 3
Mode extension : CM (complete main)
Format settings, Endianness : Big
Codec ID : A_AC3
Duration : 1h 41mn
Bit rate mode : Constant
Bit rate : 640 Kbps
Channel(s) : 6 channels
Channel positions : Front: L C R, Side: L R, LFE
Sampling rate : 48.0 KHz
Compression mode : Lossy
Stream size : 465 MiB (7%)
Title : Оригинал
Language : English
Default : No
Forced : No

Text #1
ID : 4
Format : UTF-8
Codec ID : S_TEXT/UTF8
Codec ID/Info : UTF-8 Plain Text
Title : Ukrainian
Language : Ukrainian
Default : No
Forced : No

Text #2
ID : 5
Format : UTF-8
Codec ID : S_TEXT/UTF8
Codec ID/Info : UTF-8 Plain Text
Title : Original
Language : English
Default : No
Forced : No

Menu
00:00:00.000 : en:00:00:00.000
00:04:22.679 : en:00:04:22.679
00:16:46.505 : en:00:16:46.505
00:21:54.355 : en:00:21:54.355
00:35:15.989 : en:00:35:15.989
00:44:26.539 : en:00:44:26.539
00:48:30.032 : en:00:48:30.032
00:51:52.860 : en:00:51:52.860
00:59:32.986 : en:00:59:32.986
01:01:00.574 : en:01:01:00.574
01:02:22.989 : en:01:02:22.989
01:05:51.239 : en:01:05:51.239
01:07:05.939 : en:01:07:05.939
01:09:18.905 : en:01:09:18.905
01:17:47.454 : en:01:17:47.454
01:21:03.609 : en:01:21:03.609
01:32:44.768 : en:01:32:44.768
01:34:10.103 : en:01:34:10.103
Скріншоти





Джерело: &
Особиста оцінка: 10 - без зайвих вагань рекомендую всім! В вузьких колах культове кіно.


Срібний реліз (на рейтинг впливає 50% завантаженого)
 Трекер:    Зареєстрований   

Завантажити / скачати фільм українською



відео для новачків



 Зареєстрований:   2015-07-26 09:29
 Розмір:   6.72 GB 
 Оцінка фільму:   9.8/10 (Голосів: 15)
   
Інші релізи
igor911 
Відео Гуртом
Відео Гуртом


З нами з: 18.01.08
Востаннє: 10.12.16
Повідомлень: 5217

2015-07-26 20:19  
Усі релізи Ворона на Гуртом: http://toloka.to/tracker.php?nm=The+Crow+1994
Ua.bos_01 
VIP


З нами з: 22.06.15
Востаннє: 06.12.16
Повідомлень: 1291

2015-08-15 22:07  
Хороший фільм. Мав колись три частини на касетах. Раджу до перегляду.
Ваш часовий пояс: GMT + 2 Години

Нова тема   Відповісти