Завантажити та скачати торренти українською


Філософи / The Philosophers (2013) 720p Ukr/Eng

Нові коментарі

Нова тема   Відповісти
Автор Повідомлення
Drool 
VIP


З нами з: 17.04.10
Востаннє: 10.12.16
Повідомлень: 1270

2015-07-23 11:17  
Філософи / The Philosophers (2013) 720p Ukr/Eng

Жанр: драма, фентезі, фантастика, трилер
Країна: США, Індонезія



Кінокомпанія: An Olive Branch Productions, SCTV
Режисер: Джон Гаддлс
Актори: Джеймс Д`Арсі, Софі Лоу, Деріл Сабара, Фредді Строма, Різ Вейкфілд, Бонні Райт, Майя Мітчелл та інші

Сюжет:
У міжнародній школі в Джакарті учитель філософії кидає виклик своєму класу з двадцяти учнів, які отримують вищу освіту. З них лише десять потраплять в підпільний притулок для того, щоб перезавантажити людський рід у випадку ядерного апокаліпсису...


Тривалість: 01:46:38
Якість: 720p
Відео:
кодек:
розмір кадру: 1280x528
бітрейт: 4352 кб/с

Аудіо # 1:
мова: українська
переклад: професійний дубльований
кодек: 2.0
бітрейт: 192 кб/с

Аудіо # 2:
мова: англійська
переклад: оригінал
кодек: 5.1
бітрейт: 448 кб/с
MediaInfo
General
Unique ID : 29765531406697813543620299411572698972 (0x1664A200CC46AE51825B05A35968AF5C)
Complete name : /mnt/disk_d/Video/The.Philosophers.2013.Ukr.Dub-LINE..720p.mkv
Format : Matroska
Format version : Version 4 / Version 2
File size : 3.72 GiB
Duration : 1h 46mn
Overall bit rate : 4 992 Kbps
Movie name : Філософи / The Philosophers (2013) 720p [video by MegaPeer]
Encoded date : UTC 2015-07-23 07:16:54
Writing application : mkvmerge v8.1.0 ('Psychedelic Postcard') 64bit
Writing library : libebml v1.3.1 + libmatroska v1.4.2
DURATION : 01:46:38.656000000
NUMBER_OF_FRAMES : 199958
NUMBER_OF_BYTES : 153567744
_STATISTICS_WRITING_APP : mkvmerge v8.1.0 ('Psychedelic Postcard') 64bit
_STATISTICS_WRITING_DATE_UTC : 2015-07-23 07:16:54
_STATISTICS_TAGS : BPS DURATION NUMBER_OF_FRAMES NUMBER_OF_BYTES

Video
ID : 1
Format : AVC
Format/Info : Advanced Video Codec
Format profile : [email protected]
Format settings, CABAC : Yes
Format settings, ReFrames : 5 frames
Codec ID : V_MPEG4/ISO/AVC
Duration : 1h 46mn
Bit rate : 4 352 Kbps
Width : 1 280 pixels
Height : 528 pixels
Display aspect ratio : 2.40:1
Frame rate mode : Constant
Frame rate : 24.000 fps
Color space : YUV
Chroma subsampling : 4:2:0
Bit depth : 8 bits
Scan type : Progressive
Bits/(Pixel*Frame) : 0.268
Stream size : 3.17 GiB (85%)
Title : Філософи / The Philosophers (2013) 720p [video by MegaPeer]
Writing library : core 140 r2377 1ca7bb9
Encoding settings : cabac=1 / ref=5 / deblock=1:0:0 / analyse=0x3:0x133 / me=umh / subme=7 / psy=1 / psy_rd=1.00:0.00 / mixed_ref=1 / me_range=16 / chroma_me=1 / trellis=1 / 8x8dct=1 / cqm=0 / deadzone=21,11 / fast_pskip=0 / chroma_qp_offset=-2 / threads=12 / lookahead_threads=2 / sliced_threads=0 / nr=0 / decimate=1 / interlaced=0 / bluray_compat=0 / constrained_intra=0 / bframes=3 / b_pyramid=2 / b_adapt=1 / b_bias=0 / direct=1 / weightb=1 / open_gop=0 / weightp=1 / keyint=250 / keyint_min=24 / scenecut=40 / intra_refresh=0 / rc_lookahead=40 / rc=2pass / mbtree=1 / bitrate=4352 / ratetol=1.0 / qcomp=0.60 / qpmin=0 / qpmax=69 / qpstep=4 / cplxblur=20.0 / qblur=0.5 / ip_ratio=1.40 / aq=1:1.00
Default : Yes
Forced : Yes

Audio #1
ID : 2
Format : AC-3
Format/Info : Audio Coding 3
Mode extension : CM (complete main)
Format settings, Endianness : Big
Codec ID : A_AC3
Duration : 1h 46mn
Bit rate mode : Constant
Bit rate : 192 Kbps
Channel(s) : 2 channels
Channel positions : Front: L R
Sampling rate : 48.0 KHz
Bit depth : 16 bits
Compression mode : Lossy
Stream size : 146 MiB (4%)
Title : Рідна мова ( 2.0, 192 kbps) LINE
Language : Ukrainian
Default : Yes
Forced : Yes

Audio #2
ID : 3
Format : AC-3
Format/Info : Audio Coding 3
Mode extension : CM (complete main)
Format settings, Endianness : Big
Codec ID : A_AC3
Duration : 1h 46mn
Bit rate mode : Constant
Bit rate : 448 Kbps
Channel(s) : 6 channels
Channel positions : Front: L C R, Side: L R, LFE
Sampling rate : 48.0 KHz
Bit depth : 16 bits
Compression mode : Lossy
Stream size : 342 MiB (9%)
Title : English (original)
Language : English
Default : No
Forced : No
Скріншоти




Джерело:
Особиста оцінка: 8 - мені сподобалося


 Трекер:    Зареєстрований   

Завантажити / скачати фільм українською



відео для новачків



 Зареєстрований:   2015-07-23 11:17
 Розмір:   3.72 GB 
 Оцінка фільму:   8.1/10 (Голосів: 14)
   
Інші релізи
   Філософи / The Philosophers (2013) 1080p Ukr/Eng 11FrYkT  1 / 0   5.06 GB   2014-02-07 17:11 
   Філософи / The Philosophers (2013) patriot2305  17 / 3   1.44 GB   2014-02-07 09:51 
Sem1309 
Свій


З нами з: 05.07.09
Востаннє: 09.12.16
Повідомлень: 60

2015-07-23 12:23  
Дуже класний фільм, ще раз його подивлюсь.
Сонцеслав 
VIP


З нами з: 26.01.11
Востаннє: 21.11.16
Повідомлень: 385

2015-07-23 18:58  
Уже викладали на Гуртом. Чим цей реліз краще попереднього?
igor911 
Відео Гуртом
Відео Гуртом


З нами з: 18.01.08
Востаннє: 10.12.16
Повідомлень: 5213

2015-07-23 19:50  
Сонцеслав, викладали в avi та у 1080p. 720p не було.
Ваш часовий пояс: GMT + 2 Години

Нова тема   Відповісти