Завантажити та скачати торренти українською


Юрiй Здоренко & Хаш | Дискографія (1 альбом + 1 EP) (2009-2010) [FLAC] | Punk-Rock

Нові коментарі

Нова тема   Відповісти
Автор Повідомлення
kolpavel 
VIP


З нами з: 04.05.14
Востаннє: 10.12.16
Повідомлень: 1062

2015-07-18 20:16  
Юрiй Здоренко & Хаш | Дискографія (1 альбом + 1 EP) (2009-2010) [FLAC] | Punk-Rock



Стиль: Punk-Rock
Країна, місто: Україна, Київ
Видавець: Moon Records
Сайти: Офіційний сайт
Виконавці:
Юрій Здоренко - вокал, гітари, семплер
Юрій Тертичний - акордеон, бек-вокал
Михайло Білик - бас-гітара, бек-вокал

Альбоми:
    П’яний шансон або трохи віскі (EP) (2009)

    Юрiй Здоренко & Хаш | Дискографія (1 альбом + 1 EP) (2009-2010) [FLAC] | Punk-Rock

    01. П’яний шансон або трохи віскі
    02. Буена-чача
    03. Сніжна королева
    04. Жесть
    05. Бомба
    06. Бомба (video)
    07. Жесть (video)

    Тривалість: 00:17:05
    Мова: українська, росiйська-iспанська (2)
    Бітрейт: 969 кб/с
    Звiт EAC
    Exact Audio Copy V0.99 prebeta 5 from 4. May 2009

    Отчёт EAC об извлечении, выполненном 21. июня 2010, 3:42

    Юрий Здоренко & Хаш / П’яний шансон або трохи віскі

    Дисковод: PIONEER DVD-RW DVR-212 Adapter: 8 ID: 0

    Режим чтения : Достоверность
    Использование точного потока : Да
    Отключение кэша аудио : Да
    Использование указателей C2 : Нет

    Коррекция смещения при чтении : 48
    Способность читать области Lead-in и Lead-out : Нет
    Заполнение пропущенных сэмплов тишиной : Да
    Удаление блоков с тишиной в начале и конце : Нет
    При вычислениях CRC использовались нулевые сэмплы : Да
    Интерфейс : Установленный внешний ASPI-интерфейс

    Выходной формат : Внутренние WAV-операции
    Формат сэмплов : 44.100 Гц; 16 бит; стерео

    TOC извлечённого CD

    Трек | Старт | Длительность | Начальный сектор | Конечный сектор
    ---------------------------------------------------------------------
    1 | 0:00.00 | 4:31.00 | 0 | 20324
    2 | 4:31.00 | 3:05.03 | 20325 | 34202
    3 | 7:36.03 | 3:06.19 | 34203 | 48171
    4 | 10:42.22 | 2:58.53 | 48172 | 61574
    5 | 13:41.00 | 3:23.59 | 61575 | 76858
    6 | 19:36.59 | 13:18.56 | 88259 | 148164

    Характеристики диапазона извлечения и сообщения об ошибках

    Выбранный диапазон

    Имя файла B:\MP 3\Воплi Вiдоплясова (FLAC)\Юрий Здоренко & Хаш\2009 П’яний шансон або трохи віскі (EP)\Юрий Здоренко & Хаш - П’яний шансон або трохи віскі.wav

    Пиковый уровень 100.0 %
    Качество диапазона 99.9 %
    CRC теста E471356A
    CRC копии E471356A
    Копирование... OK

    Ошибок не произошло

    AccurateRip: сводка

    Трек 1 нет в базе данных
    Трек 2 нет в базе данных
    Трек 3 нет в базе данных
    Трек 4 нет в базе данных
    Трек 5 нет в базе данных

    Ни одного трека нет в базе AccurateRip

    Конец отчёта
    Бомба (video)
    Тривалiсть: 3:22

    Вiдео: NTSC, DivX 5, 24bits (720x544) 4/3, 2 302 Kbps, 25.000 fps
    Аудiо: MP3, 160 kbps, 48 KHz/16 bits, 2ch.stereo
    Жесть (video)
    Тривалiсть: 3:13

    Вiдео:NTSC, DivX 5, 24bits (720x544) 4/3, 2 298 Kbps, 25.000 fps
    Аудiо:MP3, 160 kbps, 48 KHz/16 bits, 2ch.stereo
    На здоров’я! (2010)
    Юрiй Здоренко & Хаш | Дискографія (1 альбом + 1 EP) (2009-2010) [FLAC] | Punk-Rock

    Треклист:
    01. Фрау-джан
    02. Дуля
    03. Жесть–буде бляха
    04. Дзеркало пісень
    05. Підозріла музика
    06. Дарма
    07. Царівна-жаба
    08. Аня-йо
    09. Емінема нема
    10. Уругвай
    11. Сніжна королева
    12. П’яний шансон
    13. Буена-чача
    Тривалість: 00:46:03
    Бітрейт: 975 кб/с
    Мова: українська, росiйська-iспанська (13)
    Звiт EAC
    Exact Audio Copy V0.99 prebeta 5 from 4. May 2009

    EAC extraction logfile from 9. November 2010, 23:23

    Юрий Здоренко & Хаш / На здоров’я!

    Used drive : PIONEER DVD-RW DVR-212 Adapter: 8 ID: 0

    Read mode : Secure
    Utilize accurate stream : Yes
    Defeat audio cache : Yes
    Make use of C2 pointers : No

    Read offset correction : 48
    Overread into Lead-In and Lead-Out : No
    Fill up missing offset samples with silence : Yes
    Delete leading and trailing silent blocks : No
    Null samples used in CRC calculations : Yes
    Used interface : Installed external ASPI interface

    Used output format : Internal WAV Routines
    Sample format : 44.100 Hz; 16 Bit; Stereo

    TOC of the extracted CD

    Track | Start | Length | Start sector | End sector
    ---------------------------------------------------------
    1 | 0:00.00 | 3:27.00 | 0 | 15524
    2 | 3:27.00 | 3:07.00 | 15525 | 29549
    3 | 6:34.00 | 3:09.37 | 29550 | 43761
    4 | 9:43.37 | 3:22.00 | 43762 | 58911
    5 | 13:05.37 | 2:48.00 | 58912 | 71511
    6 | 15:53.37 | 3:44.00 | 71512 | 88311
    7 | 19:37.37 | 3:49.37 | 88312 | 105523
    8 | 23:26.74 | 2:46.61 | 105524 | 118034
    9 | 26:13.60 | 4:14.37 | 118035 | 137121
    10 | 30:28.22 | 4:19.00 | 137122 | 156546
    11 | 34:47.22 | 3:42.00 | 156547 | 173196
    12 | 38:29.22 | 4:31.00 | 173197 | 193521
    13 | 43:00.22 | 3:03.05 | 193522 | 207251

    Range status and errors

    Selected range

    Filename J:\MP3\Воплi Вiдоплясова (FLAC)\Юрий Здоренко & Хаш\2010 На здоров’я!\Юрий Здоренко & Хаш - На здоров’я!.wav

    Peak level 100.0 %
    Range quality 100.0 %
    Test CRC 9A7649D6
    Copy CRC 9A7649D6
    Copy OK

    No errors occurred

    AccurateRip summary

    Track 1 not present in database
    Track 2 not present in database
    Track 3 not present in database
    Track 4 not present in database
    Track 5 not present in database
    Track 6 not present in database
    Track 7 not present in database
    Track 8 not present in database
    Track 9 not present in database
    Track 10 not present in database
    Track 11 not present in database
    Track 12 not present in database
    Track 13 not present in database

    None of the tracks are present in the AccurateRip database

    End of status report

Тривалість: 01:03:22
Мова: українська, трохи іспанської та російської (2 трек EP, 13 трек CD2)
Аудіо-кодек: FLAC
Бітрейт: CD1-969, CD2-975 кб/с
Джерело: Інтернет


Золотий реліз (завантажене не впливає на рейтинг)
 Трекер:    Зареєстрований   

Завантажити / скачати українську музику



відео для новачків



 Зареєстрований:   2015-07-18 20:16
 Розмір:   773 MB 
 Оцінка музики:   10/10 (Голосів: 2)
   
ssTAss 
Модератор музики


З нами з: 05.07.08
Востаннє: 10.12.16
Повідомлень: 10950

2015-07-19 00:40  
до відео під спойлером треба додати скріншоти
kolpavel 
VIP


З нами з: 04.05.14
Востаннє: 10.12.16
Повідомлень: 1062

2015-07-19 23:08  
додав
ssTAss 
Модератор музики


З нами з: 05.07.08
Востаннє: 10.12.16
Повідомлень: 10950

2015-07-19 23:27  
kolpavel написано:
додав

фейспалм
Ви не знаєте як робити скріншоти з відео?
почитайте тут
http://toloka.to/t526
чи просто погугліть

kolpavel 
VIP


З нами з: 04.05.14
Востаннє: 10.12.16
Повідомлень: 1062

2015-07-24 17:27  
додав
Ваш часовий пояс: GMT + 2 Години

Нова тема   Відповісти