Завантажити та скачати торренти українською


Микола Гнатюк - О, смереко (1997) [APE] | Pop

Нові коментарі

Нова тема   Відповісти
Останній раз роздавалося volodymyr_zvv (2016-12-10)
Автор Повідомлення
kolpavel 
VIP


З нами з: 04.05.14
Востаннє: 10.12.16
Повідомлень: 1061

2015-07-17 22:43  
Микола Гнатюк - О, смереко (1997) [APE] | Pop

Микола Гнатюк - О, смереко (1997) [APE] | Pop


Стиль: Pop
Країна, місто: Україна, Хмельницька область, Старокостянтинівський район
Видавець: NAC
Виконавці:
Микола Васильович Гнатюк
Пісні:
    01. О, смереко
    02. Небо твоїх очей
    03. Я повернусь
    04. Аве Марія
    05. Де ти, дитинство моє
    06. Малиновый звон
    07. Барабан
    08. Это не сон
    09. Папа, иди домой
    10. Сонце-літо
    11. Сонячно
    12. Чи я прийду
    13. Україна
    14. Все буде добре

Тривалість: 00:44:47
Мова: українська (1-5,10-14), росiйська (6-9)
Аудіо-кодек: APE
Бітрейт: 827 кб/с
Джерело: Інтернет
Додаткова інформація:
Звiт EAC
Exact Audio Copy V0.99 prebeta 4 from 23. January 2008

Отчёт EAC об извлечении, выполненном 20. июня 2008, 11:17

Микола Гнатюк / О, Смереко

Дисковод: MAD DOG MD-16X2DVD9-8X Adapter: 1 ID: 1

Режим чтения : Достоверность
Использование точного потока : Да
Отключение кэша аудио : Да
Использование указателей C2 : Нет

Коррекция смещения при чтении : 48
Способность читать области Lead-in и Lead-out : Нет
Заполнение пропущенных сэмплов тишиной : Да
Удаление блоков с тишиной в начале и конце : Нет
При вычислениях CRC использовались нулевые сэмплы : Да
Интерфейс : Установленный внешний ASPI-интерфейс

Выходной формат : Внутренние WAV-операции
Формат сэмплов : 44.100 Гц; 16 бит; стерео

TOC извлечённого CD

Трек | Старт | Длительность | Начальный сектор | Конечный сектор
---------------------------------------------------------------------
1 | 0:00.00 | 3:18.55 | 0 | 14904
2 | 3:18.55 | 3:38.37 | 14905 | 31291
3 | 6:57.17 | 3:02.74 | 31292 | 45015
4 | 10:00.16 | 3:18.39 | 45016 | 59904
5 | 13:18.55 | 2:59.31 | 59905 | 73360
6 | 16:18.11 | 4:25.72 | 73361 | 93307
7 | 20:44.08 | 3:21.31 | 93308 | 108413
8 | 24:05.39 | 3:08.39 | 108414 | 122552
9 | 27:14.03 | 3:10.21 | 122553 | 136823
10 | 30:24.24 | 4:53.47 | 136824 | 158845
11 | 35:17.71 | 3:16.05 | 158846 | 173550
12 | 38:34.01 | 2:54.12 | 173551 | 186612
13 | 41:28.13 | 3:19.00 | 186613 | 201537
14 | 44:47.13 | 2:44.08 | 201538 | 213845

Характеристики диапазона извлечения и сообщения об ошибках

Выбранный диапазон

Имя файла E:\Downloads\Releases\Микола Гнатюк - О, Смереко (1997)\Микола Гнатюк - О, Смереко.wav

Пиковый уровень 89.1 %
Качество диапазона 100.0 %
CRC копии 5D5736D4
Копирование... OK

Ошибок не произошло

Конец отчёта


Якщо Ви справді бажаєте підтримати українське - після прослуховування, якщо музика вам сподобалась, придбайте ліцензійний диск. Підтримаймо вітчизняних виконавців!


Срібний реліз (на рейтинг впливає 50% завантаженого)
 Трекер:    Зареєстрований   

Завантажити / скачати українську музику



відео для новачків



 Зареєстрований:   2015-07-17 22:43
 Розмір:   281 MB 
 Оцінка музики:   9.7/10 (Голосів: 3)
   
kolpavel 
VIP


З нами з: 04.05.14
Востаннє: 10.12.16
Повідомлень: 1061

2015-07-17 23:03  
Нічого по цьому альбому не знайшов. Але альбом гідний уваги. Може у кого є інформація?
ssTAss 
Модератор музики


З нами з: 05.07.08
Востаннє: 10.12.16
Повідомлень: 10950

2015-07-17 23:33  
kolpavel написано:
Нічого по цьому альбому не знайшов.

Вас в гуглі забанили?))
Микола Гнатюк ‎– О, Смереко
там і обкладинки є всі
це ріп з касети

Додано через 19 хвилин 23 секунди:

kolpavel написано:
Нi, не з касети.

хоча і справді в 97 NAC диски і касети продукувала
не думаю, що видавець інший (я про диск/касета), хоча якщо в когось будуть обкладинки від диску, то тоді стане все на свої місця
kolpavel написано:
Може у кого є інформація?

а яка Вам ще потрібна інформація? обкладинка є, перелік пісень правильний... що не так?
kolpavel написано:
Бітрейт: 1411 кб/с

перегляньте будь ласка бітрейт, бо 1411 - то wav, а ape все ж таки стискає (не кодує) потік

kolpavel 
VIP


З нами з: 04.05.14
Востаннє: 10.12.16
Повідомлень: 1061

2015-07-17 23:46  
Бітрейт дiйсно 1411.

Додано через 3 хвилини 49 секунд:

ssTAss. дякую. А то я запутався. Зараз все наче правильно.

ssTAss 
Модератор музики


З нами з: 05.07.08
Востаннє: 10.12.16
Повідомлень: 10950

2015-07-17 23:46  
kolpavel написано:
Бітрейт дiйсно 1411.

хм, тоді б реліз "важив" б 474 метри
гаразд, зараз завантажу і сам розберусь

kolpavel 
VIP


З нами з: 04.05.14
Востаннє: 10.12.16
Повідомлень: 1061

2015-07-17 23:50  
Перевiряв КMP - 1411
ssTAss 
Модератор музики


З нами з: 05.07.08
Востаннє: 10.12.16
Повідомлень: 10950

2015-07-17 23:55  
kolpavel написано:
Перевiряв КMP - 1411

не знаю що у Вас там показує, але в релізі бітрейт 827
щось з кодеками у Вас негаразд
для визначення всієї інфи всіх медіа-файлів раджу мати на компі MediaInfo

Ваш часовий пояс: GMT + 2 Години

Нова тема   Відповісти