Завантажити та скачати торренти українською


Попелюшка / Cinderella (2015) 720p-mini

Нові коментарі

Нова тема   Відповісти
Автор Повідомлення
Drool 
VIP


З нами з: 17.04.10
Востаннє: 03.12.16
Повідомлень: 1262

2015-07-16 18:12  
Попелюшка / Cinderella (2015) 720p-mini

Попелюшка / Cinderella (2015) 720p-mini


Жанр: драма, сімейний, фентезі
Країна: США, Велика Британія


Кінокомпанія: Allison Shearmur Productions, Beagle Pug Films, Genre Films
Режисер: Кеннет Брана
Актори: Лілі Джеймс, Кейт Бланшет, Річард Медден, Гелена Бонем Картер, Нонсо Анозі, Стеллан Скарсґард, Софі МакШера, Голлідей Ґрейнджер, Дерек Джекобі, Бен Чаплін

Сюжет:
Батько молодої дівчини на ім'я Елла, залишившись вдівцем, одружується вдруге, і незабаром Елла опиняється сам-на-сам з жадібними і заздрісними новими родичками - мачухою леді Тремейн і її дочками - Анастасією та Дрізеллою. З господині будинку вона перетворюється на служницю, вічно забруднену сажею, за що і отримує від своїх сварливих зведених сестриць прізвисько - Попелюшка. Незважаючи на халепи, що випали на її долю, Попелюшка не зневіряється, адже навіть у найважчі моменти знаходиться щось, що допомагає їй думати про хороше: наприклад, випадкова зустріч на лісовій стежці з прекрасним юнаком. Елла навіть не припускає, що зустрілася з самим принцом, і що незабаром Фея-хрещена назавжди змінить її життя на краще.


Тривалість: 01:45:22
Якість: 720p-mini
Відео:
кодек:
розмір кадру: 1280x536
бітрейт: 2612 кб/с

Аудіо:
мова: українська
переклад: професійний дубльований
кодек: 5.1
бітрейт: 384 кб/с

Джерело озвучення:
MediaInfo
General
Unique ID : 294380941907836794849312613620259293964 (0xDD77B50502FDB20508CF670206650B0C)
Complete name : /mnt/disk_d/Video/Cinderella.2015.Ukr.Dub..720p-mini.UAGet.mkv
Format : Matroska
Format version : Version 4 / Version 2
File size : 2.21 GiB
Duration : 1h 45mn
Overall bit rate : 2 997 Kbps
Movie name : Попелюшка / Cinderella (2015) 720p-mini -=UAGet=-
Encoded date : UTC 2015-07-20 04:52:43
Writing application : mkvmerge v7.7.0 ('Six Voices') 64bit built on Apr 26 2015 19:42:39
Writing library : libebml v1.3.1 + libmatroska v1.4.2
TITLE : Попелюшка / Cinderella (2015) 720p-mini -=UAGet=-
ARTIST : Лілі Джеймс, Кейт Бланшет, Річард Медден, Гелена Бонем Картер, Нонсо Анозі та ін
DIRECTOR : Кеннет Брана
DATE_RELEASED : 2015
GENRE : драма, сімейний, фентезі
SYNOPSIS : Батько молодої дівчини на ім'я Елла, залишившись вдівцем, одружується вдруге, і незабаром Елла опиняється сам-на-сам з жадібними і заздрісними новими родичками - мачухою леді Тремейн і її дочками - Анастасією та Дрізеллою. З господині будинку вона перетворюється на служницю, вічно забруднену сажею, за що і отримує від своїх сварливих зведених сестриць прізвисько - Попелюшка. Незважаючи на халепи, що випали на її долю, Попелюшка не зневіряється, адже навіть у найважчі моменти знаходиться щось, що допомагає їй думати про хороше: наприклад, випадкова зустріч на лісовій стежці з прекрасним юнаком. Елла навіть не припускає, що зустрілася з самим принцом, і що незабаром Фея-хрещена назавжди змінить її життя на краще.
DURATION : 01:45:22.048000000
NUMBER_OF_FRAMES : 197564
NUMBER_OF_BYTES : 303458304
_STATISTICS_WRITING_APP : mkvmerge v7.7.0 ('Six Voices') 64bit built on Apr 26 2015 19:42:39
_STATISTICS_WRITING_DATE_UTC : 2015-07-20 04:52:43
_STATISTICS_TAGS : BPS DURATION NUMBER_OF_FRAMES NUMBER_OF_BYTES

Video
ID : 1
Format : AVC
Format/Info : Advanced Video Codec
Format profile : [email protected]
Format settings, CABAC : Yes
Format settings, ReFrames : 11 frames
Codec ID : V_MPEG4/ISO/AVC
Duration : 1h 45mn
Bit rate : 2 612 Kbps
Width : 1 280 pixels
Height : 536 pixels
Display aspect ratio : 2.40:1
Frame rate mode : Constant
Frame rate : 23.976 fps
Color space : YUV
Chroma subsampling : 4:2:0
Bit depth : 8 bits
Scan type : Progressive
Bits/(Pixel*Frame) : 0.159
Stream size : 1.88 GiB (85%)
Title : Попелюшка / Cinderella (2015) 720p-mini -=UAGet=-
Writing library : core 142 r2389 956c8d8
Encoding settings : cabac=1 / ref=12 / deblock=1:-2:-1 / analyse=0x3:0x133 / me=umh / subme=11 / psy=1 / psy_rd=1,10:0,10 / mixed_ref=1 / me_range=64 / chroma_me=1 / trellis=2 / 8x8dct=1 / cqm=0 / deadzone=21,11 / fast_pskip=0 / chroma_qp_offset=-3 / threads=6 / lookahead_threads=1 / sliced_threads=0 / nr=0 / decimate=1 / interlaced=0 / bluray_compat=0 / constrained_intra=0 / bframes=12 / b_pyramid=1 / b_adapt=2 / b_bias=0 / direct=3 / weightb=1 / open_gop=0 / weightp=2 / keyint=240 / keyint_min=24 / scenecut=40 / intra_refresh=0 / rc=2pass / mbtree=0 / bitrate=2612 / ratetol=1,0 / qcomp=1,00 / qpmin=0 / qpmax=69 / qpstep=4 / cplxblur=20,0 / qblur=0,5 / ip_ratio=1,40 / pb_ratio=1,30 / aq=2:0,60
Default : Yes
Forced : Yes
Color primaries : BT.709
Transfer characteristics : BT.709
Matrix coefficients : BT.709

Audio
ID : 2
Format : AC-3
Format/Info : Audio Coding 3
Mode extension : CM (complete main)
Format settings, Endianness : Big
Codec ID : A_AC3
Duration : 1h 45mn
Bit rate mode : Constant
Bit rate : 384 Kbps
Channel(s) : 6 channels
Channel positions : Front: L C R, Side: L R, LFE
Sampling rate : 48.0 KHz
Bit depth : 16 bits
Compression mode : Lossy
Stream size : 289 MiB (13%)
Title : Рідна мова ( 5.1 384 kbps) | iTunes
Language : Ukrainian
Default : Yes
Forced : Yes
Скріншоти




Реліз від:
Особиста оцінка: 0 - не дивився


 Трекер:    Зареєстрований   

Завантажити / скачати фільм українською



відео для новачків



 Зареєстрований:   2015-07-20 07:01
 Розмір:   2.21 GB 
 Оцінка фільму:   9.8/10 (Голосів: 15)
   
Інші релізи
   Попелюшка / Cinderella (2015) Remux 1080p Ukr/Eng | Sub Ukr/Eng Alex60  2 / 0   28.73 GB   2015-08-26 19:00 
   Попелюшка / Cinderella (2015) Ukr/Eng | Sub Ukr/Eng Gelios  19 / 0   1.45 GB   2015-07-31 16:18 
   Попелюшка / Cinderella (2015) AVC patriot2305  6 / 0   1.66 GB   2015-07-31 15:54 
   Попелюшка / Cinderella (2015) 1080p Ukr/Eng | Sub Ukr/Eng 11FrYkT  10 / 0   14.37 GB   2015-07-31 15:08 
   Попелюшка / Cinderella (2015) 720p Ukr/Eng | Sub Ukr/Eng 11FrYkT  9 / 0   5.49 GB   2015-07-31 15:07 
bot 
робот


З нами з: 30.09.07
Востаннє: 26.05.05
Повідомлень: 15986

2015-07-16 18:12  
Тему перенесено з Фільми в HD до форуму Анонси релізів


Drool

FreeUkrainian2015 
Свій


З нами з: 15.04.13
Востаннє: 26.11.15
Повідомлень: 69

2015-07-18 19:59  
Ну? Й КОЛИ роздаватиметься, щоб не проґавити? Happy
Drool 
VIP


З нами з: 17.04.10
Востаннє: 03.12.16
Повідомлень: 1262

2015-07-18 23:47  
FreeUkrainian2015 написано:
Ну? Й КОЛИ роздаватиметься, щоб не проґавити?
У понеділок.
FreeUkrainian2015 
Свій


З нами з: 15.04.13
Востаннє: 26.11.15
Повідомлень: 69

2015-07-19 20:57  
Drool
Гаразд, чекатиму (десь, напевно, після обіду чи надвечір, так?) Happy, а то 1800 у паралельній роздачі якось не серйозно дивитись (мені узагалі б 4-7 Мб, але вже як буде)...

Drool 
VIP


З нами з: 17.04.10
Востаннє: 03.12.16
Повідомлень: 1262

2015-07-19 22:04  
FreeUkrainian2015 написано:
десь, напевно, після обіду чи надвечір, так?
Ні, зранку. У п'ятницю, коли я йшов з роботи, кодуватися залишалось пару годин. Так що вже відеоряд повинен бути відкодований.
FreeUkrainian2015 
Свій


З нами з: 15.04.13
Востаннє: 26.11.15
Повідомлень: 69

2015-07-19 22:24  
Гаразд.
bot 
робот


З нами з: 30.09.07
Востаннє: 26.05.05
Повідомлень: 15986

2015-07-20 07:01  
Тему перенесено з Анонси релізів до форуму Фільми в HD


Drool

Konfucius 
Управління
Управління


З нами з: 30.09.07
Востаннє: 04.12.16
Повідомлень: 4741

2015-07-20 13:52  
Drool написано:
ref=12
subme=11
me_range=64

Напевне кодувалося довго Happy

Drool 
VIP


З нами з: 17.04.10
Востаннє: 03.12.16
Повідомлень: 1262

2015-07-20 14:12  
Konfucius написано:
Напевне кодувалося довго
Годин 5-6 в 2 проходи. Бессовістно юзаю робочий сервер на i5 + Linux + Handbrake Wink (1)
Ваш часовий пояс: GMT + 2 Години

Нова тема   Відповісти