Завантажити та скачати торренти українською


Drudkh - Eastern Frontier In Flames (Compilation) (2014) [FLAC] | Black Metal

Нові коментарі

Нова тема   Відповісти
Автор Повідомлення
kolpavel 
VIP


З нами з: 04.05.14
Востаннє: 03.12.16
Повідомлень: 1060

2015-07-15 20:38  
Drudkh - Eastern Frontier In Flames (Compilation) (2014) [FLAC] | Black Metal

Drudkh - Eastern Frontier In Flames (Compilation) (2014) [FLAC] | Black Metal


Стиль: Black Metal
Країна, місто: Україна, Харків
Видавець: Season of Mist
Виконавці:
Роман Саєнко
Thurios
Krechet
Влад
Пісні:
    Anti-Urban:
    01. Fallen Into Oblivion (07:00)
    02. Ashes (06:25)

    Slavonic Chronicles:
    03. Tam gdzie gaśnie dzień... (Sacrilegium cover) (10:22)
    04. Indiánská píseň hrůzy (Master's Hammer cover) (05:34)

    Thousands Of Moons Ago:
    05. ...w krainie drzew (Hefeystos cover) (05:44)
    06. Ten, který se vyhýbá světlu (Unclean cover) (05:13)
    07. Recidivus (Sacrilegium cover) (04:56)
Скан диску
Drudkh - Eastern Frontier In Flames (Compilation) (2014) [FLAC] | Black Metal
Тривалість: 00:56:44
Мова: польська (5,7), чеська (4,6), українська (3), відсутня (1,2)
Аудіо-кодек: FLAC
Бітрейт: 1036 кб/с
Джерело: Інтернет
Додаткова інформація:
Лог рiпу
Exact Audio Copy V1.0 beta 3 from 29. August 2011

EAC extraction logfile from 30. January 2014, 15:27

Drudkh / Eastern Frontier in Flames

Used drive : PLEXTOR DVDR PX-891SA Adapter: 1 ID: 0

Read mode : Secure
Utilize accurate stream : Yes
Defeat audio cache : Yes
Make use of C2 pointers : No

Read offset correction : 6
Overread into Lead-In and Lead-Out : No
Fill up missing offset samples with silence : Yes
Delete leading and trailing silent blocks : No
Null samples used in CRC calculations : Yes
Used interface : Native Win32 interface for Win NT & 2000

Used output format : User Defined Encoder
Selected bitrate : 768 kBit/s
Quality : High
Add ID3 tag : No
Command line compressor : C:\Program Files (x86)\Exact Audio Copy\FLAC\FLAC.EXE
Additional command line options : -6 -V %source%

TOC of the extracted CD

Track | Start | Length | Start sector | End sector
---------------------------------------------------------
1 | 0:00.00 | 7:00.59 | 0 | 31558
2 | 7:00.59 | 6:25.39 | 31559 | 60472
3 | 13:26.23 | 10:22.69 | 60473 | 107191
4 | 23:49.17 | 5:34.26 | 107192 | 132267
5 | 29:23.43 | 5:44.47 | 132268 | 158114
6 | 35:08.15 | 5:13.38 | 158115 | 181627
7 | 40:21.53 | 4:56.68 | 181628 | 203895

Range status and errors

Selected range

Filename D:\MeTaLMaDNeSS.TeaM\Drudkh (UKR) - Eastern Frontier in Flames (Digipak)\Drudkh - Eastern Frontier in Flames.wav

Peak level 98.8 %
Extraction speed 7.9 X
Range quality 100.0 %
Test CRC 620F2F00
Copy CRC 620F2F00
Copy OK

No errors occurred

AccurateRip summary

Track 1 not present in database
Track 2 not present in database
Track 3 not present in database
Track 4 not present in database
Track 5 not present in database
Track 6 not present in database
Track 7 not present in database

None of the tracks are present in the AccurateRip database

End of status report

---- CUETools DB Plugin V2.1.3

[CTDB TOCID: FPQCNycke7d5i8UByWsWY0nmGis-] found, Submit result: FPQCNycke7d5i8UByWsWY0nmGis- has been uploaded
[1bdb6364] (1/1) No match

==== Log checksum 956A4251CD21DE16BA1B333FCB03210362B07C54693B2CF398831B3115A31403 ====
(.CUE)
REM GENRE "Atmospheric Black Metal"
REM DATE 2014
REM DISCID 450A9E07
REM COMMENT "ExactAudioCopy v1.0b3"
PERFORMER "Drudkh"
TITLE "Eastern Frontier In Flames"
FILE "Drudkh - Eastern Frontier in Flames.flac" WAVE
TRACK 01 AUDIO
TITLE "Fallen Into Oblivion"
PERFORMER "Drudkh"
INDEX 01 00:00:00
TRACK 02 AUDIO
TITLE "Ashes"
PERFORMER "Drudkh"
INDEX 01 07:00:59
TRACK 03 AUDIO
TITLE "Tam gdzie gaśnie dzień... (Sacrilegium cover)"
PERFORMER "Drudkh"
INDEX 01 13:26:23
TRACK 04 AUDIO
TITLE "Indiánská píseň hrůzy (Master's Hammer cover)"
PERFORMER "Drudkh"
INDEX 01 23:49:17
TRACK 05 AUDIO
TITLE "...w krainie drzew (Hefeystos cover)"
PERFORMER "Drudkh"
INDEX 01 29:23:43
TRACK 06 AUDIO
TITLE "Ten, který se vyhýbá světlu (Unclean cover)"
PERFORMER "Drudkh"
INDEX 01 35:08:15
TRACK 07 AUDIO
TITLE "Recidivus (Sacrilegium cover)"
PERFORMER "Drudkh"
INDEX 01 40:21:53
auCDtect
-----------------------

DON'T MODIFY THIS FILE

-----------------------

PERFORMER: auCDtect Task Manager, ver. 1.5.1RC6 build 1.5.1.7
Copyright (c) 2008-2010 y-soft. All rights reserved
http://y-soft.org

ANALYZER: auCDtect: CD records authenticity detector, version 0.8.2
Copyright (c) 2004 Oleg Berngardt. All rights reserved.
Copyright (c) 2004 Alexander Djourik. All rights reserved.

FILE: Drudkh - Eastern Frontier in Flames.flac
Size: 352140430 Hash: B6E6A8B5753A7B69A656F7CBF88D14DD Accuracy: -m0
Conclusion: CDDA 100%
Signature: 86788F504D9234B91D21A7ED5649E185EC871075
TT Dynamic Range Meter
foobar2000 1.1.10 / Dynamic Range Meter 1.1.1
log date: 2014-02-17 08:52:03

--------------------------------------------------------------------------------
Analyzed: Drudkh / Eastern Frontier In Flames
--------------------------------------------------------------------------------

DR Peak RMS Duration Track
--------------------------------------------------------------------------------
DR7 -0.10 dB -7.56 dB 7:01 01-Fallen Into Oblivion
DR8 -0.10 dB -8.58 dB 6:26 02-Ashes
DR5 -0.10 dB -6.44 dB 10:23 03-Tam gdzie gaśnie dzień... (Sacrilegium cover)
DR5 -0.10 dB -6.19 dB 5:34 04-Indiánská píseň hrůzy (Master's Hammer cover)
DR6 -0.10 dB -6.97 dB 5:45 05-...w krainie drzew (Hefeystos cover)
DR5 -0.10 dB -5.78 dB 5:14 06-Ten, který se vyhýbá světlu (Unclean cover)
DR6 -0.10 dB -6.48 dB 4:57 07-Recidivus (Sacrilegium cover)
--------------------------------------------------------------------------------

Number of tracks: 7
Official DR value: DR6

Samplerate: 44100 Hz
Channels: 2
Bits per sample: 16
Bitrate: 1036 kbps
Codec: FLAC


Якщо Ви справді бажаєте підтримати українське - після прослуховування, якщо музика вам сподобалась, придбайте ліцензійний диск. Підтримаймо вітчизняних виконавців!


Срібний реліз (на рейтинг впливає 50% завантаженого)
 Трекер:    Зареєстрований   

Завантажити / скачати українську музику



відео для новачків



 Зареєстрований:   2015-07-15 20:38
 Розмір:   340 MB 
 Оцінка музики:   9.3/10 (Голосів: 4)
   
ssTAss 
Модератор музики


З нами з: 05.07.08
Востаннє: 03.12.16
Повідомлень: 10930

2015-07-15 21:44  
kolpavel написано:
Мова: польська (5,7), чеська (4,6), українська (3)

а 1 і 2 ?

kolpavel 
VIP


З нами з: 04.05.14
Востаннє: 03.12.16
Повідомлень: 1060

2015-07-15 22:32  
1 і 2 - просто музика
Ваш часовий пояс: GMT + 2 Години

Нова тема   Відповісти