Завантажити та скачати торренти українською


Муха / Eega (2012) 1080p Ukr/Tel

Нові коментарі

Нова тема   Відповісти
Автор Повідомлення
Anonymous 







2015-07-15 19:25  
Муха / Eega (2012) 1080p Ukr/Tel

Муха / Eega (2012) 1080p Ukr/Tel


Жанр: фентезі, драма, комедія
Країна: Індія



Режисер: Ш.Ш. Раджамолі / S.S. Rajamouli, Дж.В.В. Сатьянараяна / J.V.V. Sathyanarayana
Актори: Нані / Nani, Саманта Рут Прабху / Samantha Ruth Prabhu, Судіп / Sudeep, Сантанам / Santhanam, Шрініваса Редді / Srinivasa Reddy, Девадаршині Четан / Devadarshini Chetan, та інші

Сюжет:
Симпатичний і привабливий хлопець Нані закохується в Бінду, і та відповідає йому взаємністю. Але в цій історії є третій — Бінду подобається справжньому бандиту, який не
зупиниться ні перед чим, щоб отримати бажане. Він вбиває Нані, але той перед смертю клянеться помститися. Щоб не залишати дівчину наодинці з убивцею і покарати його по справедливості, Нані відроджується. Але народитися знову людиною — це означає довгі роки дорослішання, а Нані не може чекати. І він погоджується відродитися кімнатної мухою, чий термін життя складає 17 днів. Що можна зробити за 17 днів, та ще й будучи мухою?


Тривалість: 02:13:47
Якість: 1080p
Відео:
кодек:
розмір кадру: 1920x816
бітрейт: 6999 кб/с

Аудіо # 1:
мова: українська
переклад: багатоголосий закадровий | BaibaKo
кодек: 5.1
бітрейт: 640 кб/с
Інформація про озвучення:


Переклала: Дарія Омеляненко
Ролі озвучили: Яніна Галицька, Людмила Швець, Олександр Фурман та Артемій Мирон
Монтаж і зведення звуку: Тарас Гавришкевич
Обкладинка: Тарас Гавришкевич
Аудіо # 2:
мова: Телуґу
переклад: оригінал
кодек: 5.1
бітрейт: 640 кб/с
MediaInfo
General
Unique ID : 230169524255258573338901129535702995556 (0xAD2909B421F7BF6BBFA3E33C78589264)
Format : Matroska
Format version : Version 4 / Version 2
File size : 7.74 GiB
Duration : 2h 13mn
Overall bit rate mode : Variable
Overall bit rate : 8 280 Kbps
Movie name : BaibaKo.tv presents - Муха
Encoded date : UTC 2015-07-14 14:34:21
Writing application : mkvmerge v7.8.0 ('River Man') 64bit built on Mar 27 2015 16:31:37
Writing library : libebml v1.3.1 + libmatroska v1.4.2
DURATION : 02:13:46.880000000
NUMBER_OF_FRAMES : 250840
NUMBER_OF_BYTES : 642150400
_STATISTICS_WRITING_APP : mkvmerge v7.8.0 ('River Man') 64bit built on Mar 27 2015 16:31:37
_STATISTICS_WRITING_DATE_UTC : 2015-07-14 14:34:21
_STATISTICS_TAGS : BPS DURATION NUMBER_OF_FRAMES NUMBER_OF_BYTES

Video
ID : 1
Format : AVC
Format/Info : Advanced Video Codec
Format profile : [email protected]
Format settings, CABAC : Yes
Format settings, ReFrames : 3 frames
Codec ID : V_MPEG4/ISO/AVC
Duration : 2h 13mn
Bit rate mode : Variable
Bit rate : 6 999 Kbps
Maximum bit rate : 40.0 Mbps
Width : 1 920 pixels
Height : 816 pixels
Display aspect ratio : 2.35:1
Frame rate mode : Constant
Frame rate : 24.000 fps
Color space : YUV
Chroma subsampling : 4:2:0
Bit depth : 8 bits
Scan type : Progressive
Bits/(Pixel*Frame) : 0.186
Stream size : 6.39 GiB (83%)
Writing library : core 120 r2164 da19765
Encoding settings : cabac=1 / ref=4 / deblock=1:-3:1 / analyse=0x3:0x113 / me=umh / subme=8 / psy=1 / psy_rd=1.00:0.00 / mixed_ref=1 / me_range=16 / chroma_me=1 / trellis=1 / 8x8dct=1 / cqm=0 / deadzone=21,11 / fast_pskip=1 / chroma_qp_offset=-2 / threads=12 / sliced_threads=0 / slices=4 / nr=0 / decimate=1 / interlaced=0 / bluray_compat=0 / constrained_intra=0 / bframes=3 / b_pyramid=1 / b_adapt=2 / b_bias=0 / direct=2 / weightb=1 / open_gop=0 / weightp=0 / keyint=23 / keyint_min=1 / scenecut=40 / intra_refresh=0 / rc_lookahead=23 / rc=2pass / mbtree=1 / bitrate=6999 / ratetol=1.0 / qcomp=0.60 / qpmin=10 / qpmax=51 / qpstep=4 / cplxblur=20.0 / qblur=0.5 / vbv_maxrate=40000 / vbv_bufsize=30000 / nal_hrd=vbr / ip_ratio=1.40 / aq=1:1.00
Language : Telugu
Default : Yes
Forced : No
DURATION : 02:13:46.667000000
NUMBER_OF_FRAMES : 192640
NUMBER_OF_BYTES : 7020786730
_STATISTICS_WRITING_APP : mkvmerge v7.8.0 ('River Man') 64bit built on Mar 27 2015 16:31:37
_STATISTICS_WRITING_DATE_UTC : 2015-07-14 14:34:21
_STATISTICS_TAGS : BPS DURATION NUMBER_OF_FRAMES NUMBER_OF_BYTES

Audio #1
ID : 2
Format : AC-3
Format/Info : Audio Coding 3
Mode extension : CM (complete main)
Format settings, Endianness : Big
Codec ID : A_AC3
Duration : 2h 13mn
Bit rate mode : Constant
Bit rate : 640 Kbps
Channel(s) : 6 channels
Channel positions : Front: L C R, Side: L R, LFE
Sampling rate : 48.0 KHz
Bit depth : 16 bits
Compression mode : Lossy
Stream size : 612 MiB (8%)
Title : baibako.tv
Language : Ukrainian
Default : Yes
Forced : Yes

Audio #2
ID : 3
Format : AC-3
Format/Info : Audio Coding 3
Mode extension : CM (complete main)
Format settings, Endianness : Big
Codec ID : A_AC3
Duration : 2h 13mn
Bit rate mode : Constant
Bit rate : 640 Kbps
Channel(s) : 6 channels
Channel positions : Front: L C R, Side: L R, LFE
Sampling rate : 48.0 KHz
Bit depth : 16 bits
Compression mode : Lossy
Stream size : 612 MiB (8%)
Language : Telugu
Default : No
Forced : No

Menu
00:00:00.000 : te:00:00:00.000
00:02:59.000 : te:00:02:59.000
00:05:06.417 : te:00:05:06.417
00:09:27.625 : te:00:09:27.625
00:16:57.000 : te:00:16:57.000
00:32:13.625 : te:00:32:13.625
00:37:19.625 : te:00:37:19.625
00:42:50.625 : te:00:42:50.625
00:50:34.000 : te:00:50:34.000
00:57:17.625 : te:00:57:17.625
01:07:41.000 : te:01:07:41.000
01:14:16.417 : te:01:14:16.417
01:24:43.000 : te:01:24:43.000
01:28:29.000 : te:01:28:29.000
01:34:03.000 : te:01:34:03.000
01:39:50.000 : te:01:39:50.000
01:48:21.417 : te:01:48:21.417
01:51:57.000 : te:01:51:57.000
02:08:37.625 : te:02:08:37.625
02:10:24.000 : te:02:10:24.000
Скріншоти
Трейлер:


Авторський реліз (завантажувати можна без реєстрації)
 Трекер:    Зареєстрований   

Завантажити / скачати фільм українською



відео для новачків



 Зареєстрований:   2015-07-15 19:29
 Розмір:   7.74 GB 
 Оцінка фільму:   5.5/10 (Голосів: 2)
   
Інші релізи
   Муха / Eega (2012) AVC Ukr/Tel drakon87  3 / 0   1.74 GB   2015-07-16 00:42 
   Муха / Eega (2012) 720p Ukr/Tel drakon87  3 / 0   4.16 GB   2015-07-15 19:57 
Infoserfer 
Свій


З нами з: 31.10.09
Востаннє: 08.12.16
Повідомлень: 76

2015-07-17 22:39  
Гарний фільм, місцями трохи затягнутий, але загалом я добряче посміявся.
Порадували індуси і комп'ютерною графікою (не думав, що у них може вийти щось майже "голівудське" в плані спецефектів), і красивим відеорядом (вставки, переходи між кадрами, сповільнення і пришвидшення) і пісенними "відступами", які не обривають динамізм фільму (як у багатьох стрічках з Індії), а органічно його доповнюють.
Окрема подяка BaibaKo за озвучку.
Рекомендую для одноразового перегляду.

Ваш часовий пояс: GMT + 2 Години

Нова тема   Відповісти