Завантажити та скачати торренти українською


Доктор Дуліттл / Dr. Dolittle (1998) 1080p 2xUkr/Eng | Sub Eng

Нові коментарі

Нова тема   Відповісти
Автор Повідомлення
Premer_Joker 
Частий відвідувач


З нами з: 22.01.13
Востаннє: 07.12.16
Повідомлень: 25

2015-07-14 23:04  
Доктор Дуліттл / Dr. Dolittle (1998) 1080p 2xUkr/Eng | Sub Eng

Доктор Дуліттл / Dr. Dolittle (1998) 1080p 2xUkr/Eng | Sub Eng


Жанр: Комедія, Сімейний
Країна: США



Кінокомпанія: 20th Century Fox
Режисер: Бетті Томас, Стів Кар, Річ Торн
Актори: Еді Мерфі (Eddie Murphy), Оззі Девіс, Олівер Платт, Пітер Бойл, Річард Шифф, Крістен Уїлсон, Кейлі Претт, Тара Уілсон та інші

Сюжет:
У лікаря Джона Дуліттла є, здається, все, про що тільки можна мріяти: кар'єра, що вдалася, красива дружина і дві чарівні дочки. І раптом трапляється жахливе: лікар Дуліттл помічає, що у ньому прокидається здатність говорити на мові тварин. Дуліттл у прямому розумінні слова розуміє “поклик природи” і може на нього відповісти. Чотириногі і пернаті пацієнти, почувши про чудового цілителя, не дають йому проходу у будинку і на роботі, йому доводиться рятувати від вирубки цілий ліс, де мешкає безліч тварин. Пізніше і дочка доктора Дуліттла, Майя, несподівано відкриває у собі талант батька – можливість розмовляти з тваринами.


Тривалість: 01:25:22
Якість:
Відео:
кодек:
розмір кадру: 1920 х 1038
бітрейт: 13 100 кб/с

Аудіо # 1:
мова: українська
переклад: багатоголосий закадровий
кодек: 5.1
бітрейт: 384 кб/с

Аудіо # 2:
мова: українська
переклад: багатоголосий закадровий
кодек: 5.1
бітрейт: 384 кб/с

Аудіо # 3:
мова: англійська
переклад: оригінал
кодек: 5.1
бітрейт: 1509 кб/с

Субтитри:
мова: англійська
тип: програмні (м'які)
формат: *.srt
MediaInfo
General
Unique ID : 217531026443694730082386089536324840812 (0xA3A6F3A6F1C844A4A4E6FFDC206B2D6C)
Complete name : Z:\47\Dr. Dolittle (1998) 1080p.mkv
Format : Matroska
Format version : Version 4 / Version 2
File size : 9.16 GiB
Duration : 1h 25mn
Overall bit rate : 15.4 Mbps
Movie name : Doctor Dolittle (1998) [Ukr, Eng]
Encoded date : UTC 2015-07-14 09:13:00
Writing application : mkvmerge v8.1.0 ('Psychedelic Postcard') 64bit
Writing library : libebml v1.3.1 + libmatroska v1.4.2
DURATION : 01:25:20.896000000
NUMBER_OF_FRAMES : 160028
NUMBER_OF_BYTES : 245803008
_STATISTICS_WRITING_APP : mkvmerge v8.1.0 ('Psychedelic Postcard') 64bit
_STATISTICS_WRITING_DATE_UTC : 2015-07-14 09:13:00
_STATISTICS_TAGS : BPS DURATION NUMBER_OF_FRAMES NUMBER_OF_BYTES

Video
ID : 1
Format : AVC
Format/Info : Advanced Video Codec
Format profile : [email protected]
Format settings, CABAC : Yes
Format settings, ReFrames : 4 frames
Codec ID : V_MPEG4/ISO/AVC
Duration : 1h 25mn
Bit rate : 13.1 Mbps
Width : 1 920 pixels
Height : 1 038 pixels
Display aspect ratio : 1.85:1
Frame rate mode : Constant
Frame rate : 23.976 fps
Color space : YUV
Chroma subsampling : 4:2:0
Bit depth : 8 bits
Scan type : Progressive
Bits/(Pixel*Frame) : 0.274
Stream size : 7.62 GiB (83%)
Writing library : core 102 r1666 d058f37
Encoding settings : cabac=1 / ref=4 / deblock=1:-3:-3 / analyse=0x3:0x113 / me=umh / subme=10 / psy=1 / psy_rd=1.05:0.10 / mixed_ref=1 / me_range=64 / chroma_me=1 / trellis=2 / 8x8dct=1 / cqm=2 / deadzone=21,11 / fast_pskip=0 / chroma_qp_offset=-2 / threads=12 / sliced_threads=0 / nr=0 / decimate=1 / interlaced=0 / constrained_intra=0 / bframes=3 / b_pyramid=2 / b_adapt=2 / b_bias=0 / direct=3 / weightb=1 / open_gop=0 / weightp=2 / keyint=250 / keyint_min=25 / scenecut=40 / intra_refresh=0 / rc_lookahead=60 / rc=2pass / mbtree=1 / bitrate=13099 / ratetol=2.0 / qcomp=0.70 / qpmin=10 / qpmax=51 / qpstep=4 / cplxblur=20.0 / qblur=0.5 / vbv_maxrate=50000 / vbv_bufsize=50000 / ip_ratio=1.40 / aq=1:1.00 / nal_hrd=none
Default : No
Forced : No
DURATION : 01:25:22.405000000
NUMBER_OF_FRAMES : 122815
NUMBER_OF_BYTES : 8378978165
_STATISTICS_WRITING_APP : mkvmerge v8.1.0 ('Psychedelic Postcard') 64bit
_STATISTICS_WRITING_DATE_UTC : 2015-07-14 09:13:00
_STATISTICS_TAGS : BPS DURATION NUMBER_OF_FRAMES NUMBER_OF_BYTES

Audio #1
ID : 2
Format : AC-3
Format/Info : Audio Coding 3
Mode extension : CM (complete main)
Format settings, Endianness : Big
Codec ID : A_AC3
Duration : 1h 25mn
Bit rate mode : Constant
Bit rate : 384 Kbps
Channel(s) : 6 channels
Channel positions : Front: L C R, Side: L R, LFE
Sampling rate : 48.0 KHz
Bit depth : 16 bits
Compression mode : Lossy
Delay relative to video : 750ms
Stream size : 234 MiB (2%)
Title : MVO (Noviy kanal)
Language : Ukrainian
Default : Yes
Forced : No

Audio #2
ID : 3
Format : AC-3
Format/Info : Audio Coding 3
Mode extension : CM (complete main)
Format settings, Endianness : Big
Codec ID : A_AC3
Duration : 1h 25mn
Bit rate mode : Constant
Bit rate : 384 Kbps
Channel(s) : 6 channels
Channel positions : Front: L C R, Side: L R, LFE
Sampling rate : 48.0 KHz
Bit depth : 16 bits
Compression mode : Lossy
Delay relative to video : 750ms
Stream size : 234 MiB (2%)
Title : MVO (1+1)
Language : Ukrainian
Default : No
Forced : No

Audio #3
ID : 4
Format :
Format/Info : Digital Theater Systems
Mode : 16
Format settings, Endianness : Big
Codec ID : A_DTS
Duration : 1h 25mn
Bit rate mode : Constant
Bit rate : 1 509 Kbps
Channel(s) : 6 channels
Channel positions : Front: L C R, Side: L R, LFE
Sampling rate : 48.0 KHz
Bit depth : 24 bits
Compression mode : Lossy
Delay relative to video : 11ms
Stream size : 921 MiB (10%)
Language : English
Default : No
Forced : No

Text
ID : 5
Format : UTF-8
Codec ID : S_TEXT/UTF8
Codec ID/Info : UTF-8 Plain Text
Language : English
Default : No
Forced : No
Скріншоти
Джерело:
Особиста оцінка: 8 - мені сподобалося


Срібний реліз (на рейтинг впливає 50% завантаженого)
 Трекер:    Зареєстрований   

Завантажити / скачати фільм українською



відео для новачків



 Зареєстрований:   2015-07-14 23:04
 Розмір:   9.16 GB 
 Оцінка фільму:   10/10 (Голосів: 1)
   
Ваш часовий пояс: GMT + 2 Години

Нова тема   Відповісти