Завантажити та скачати торренти українською


Смокінг / The Tuxedo (2002) 720p Ukr/Eng | Sub Eng

Нові коментарі

Нова тема   Відповісти
Автор Повідомлення
Premer_Joker 
Новенький


З нами з: 22.01.13
Востаннє: 02.12.16
Повідомлень: 22

2015-07-14 12:14  
Смокінг / The Tuxedo (2002) 720p Ukr/Eng | Sub Eng

Смокінг / The Tuxedo (2002) 720p Ukr/Eng | Sub Eng


Жанр: Комедія, бойовик
Країна: США



Кінокомпанія: DreamWorks
Режисер: Кевін Донован
Актори: Джекі Чан (Jackie Chan), Дженніфер Лав Г’юіт (Jennifer Love Hewitt), Джейсон Айзекс, Дебі Мейзер, Річі Костер, Пітер Стормер та інші

Сюжет:
Безталанний водій Джиммі Тонг несподівано отримує чудову роботу. Джиммі стає водієм у випещеного денді-мільйонера Кларка Девліна. Нова "престижна" посада була тихою та спокійною доти, доки водій не виявив, що його власний бос - шпигун екстра класу! Після того, як невідомі злодії "відправляють" Девліна до лікарні, Джиммі вирішує..."підмінити" пораненого шефа. Тепер Тонг приміряє на себе не лише маску секретного агента, а й смокінг Девліна, котрий насправді є унікальною супер-зброєю вартістю 3 мільярди доларів!


Тривалість: 01:38:45
Якість: 720p
Відео:
кодек:
розмір кадру: 1280х720
бітрейт: 3 815 кб/с

Аудіо # 1:
мова: українська
переклад: двоголосий закадровий
кодек: 5.1
бітрейт: 384 кб/с

Аудіо # 2:
мова: англійська
переклад: оригінал
кодек: 5.1
бітрейт: 384 кб/с

Джерело озвучення:


Субтитри:
мова: англійська
тип: програмні (м'які)
формат: *.srt
MediaInfo
General
Unique ID : 215580109278382816074305742920222296229 (0xA22F380272A557BEAF6C20C45758C8A5)
Complete name : Z:\47\The Tuxedo (2002) 720p.mkv
Format : Matroska
Format version : Version 4 / Version 2
File size : 3.23 GiB
Duration : 1h 38mn
Overall bit rate : 4 676 Kbps
Movie name : Смокінг / The Tuxedo (2002) [Ukr, Eng] by zextor
Encoded date : UTC 2015-07-14 09:41:40
Writing application : mkvmerge v8.1.0 ('Psychedelic Postcard') 64bit
Writing library : libebml v1.3.1 + libmatroska v1.4.2
DURATION : 01:38:44.128000000
NUMBER_OF_FRAMES : 185129
NUMBER_OF_BYTES : 284358144
_STATISTICS_WRITING_APP : mkvmerge v8.1.0 ('Psychedelic Postcard') 64bit
_STATISTICS_WRITING_DATE_UTC : 2015-07-14 09:41:40
_STATISTICS_TAGS : BPS DURATION NUMBER_OF_FRAMES NUMBER_OF_BYTES

Video
ID : 1
Format : AVC
Format/Info : Advanced Video Codec
Format profile : [email protected]
Format settings, CABAC : No
Format settings, ReFrames : 2 frames
Codec ID : V_MPEG4/ISO/AVC
Duration : 1h 38mn
Bit rate : 3 815 Kbps
Width : 1 280 pixels
Height : 720 pixels
Display aspect ratio : 16:9
Frame rate mode : Constant
Frame rate : 23.976 fps
Color space : YUV
Chroma subsampling : 4:2:0
Bit depth : 8 bits
Scan type : Progressive
Bits/(Pixel*Frame) : 0.173
Stream size : 2.63 GiB (82%)
Default : Yes
Forced : No
Color range : Limited
Color primaries : BT.709
Transfer characteristics : BT.709
Matrix coefficients : BT.709

Audio #1
ID : 2
Format : AC-3
Format/Info : Audio Coding 3
Mode extension : CM (complete main)
Format settings, Endianness : Big
Codec ID : A_AC3
Duration : 1h 38mn
Bit rate mode : Constant
Bit rate : 384 Kbps
Channel(s) : 6 channels
Channel positions : Front: L C R, Side: L R, LFE
Sampling rate : 48.0 KHz
Bit depth : 16 bits
Compression mode : Lossy
Delay relative to video : 26ms
Stream size : 271 MiB (8%)
Title : DVO (ICTV) sync by zextor
Language : Ukrainian
Default : Yes
Forced : Yes

Audio #2
ID : 3
Format : AC-3
Format/Info : Audio Coding 3
Mode extension : CM (complete main)
Format settings, Endianness : Big
Codec ID : A_AC3
Duration : 1h 38mn
Bit rate mode : Constant
Bit rate : 384 Kbps
Channel(s) : 6 channels
Channel positions : Front: L C R, Side: L R, LFE
Sampling rate : 48.0 KHz
Bit depth : 16 bits
Compression mode : Lossy
Stream size : 271 MiB (8%)
Title : Original
Language : English
Default : No
Forced : No

Text
ID : 4
Format : UTF-8
Codec ID : S_TEXT/UTF8
Codec ID/Info : UTF-8 Plain Text
Title : Eng
Language : English
Default : No
Forced : No
Скріншоти
Додаткова інформація
Синхронізація звуку - zextor
Джерело:
Особиста оцінка: 6 - третій сорт - не брак


Срібний реліз (на рейтинг впливає 50% завантаженого)
 Трекер:    Зареєстрований   

Завантажити / скачати фільм українською



відео для новачків



 Зареєстрований:   2015-07-14 12:14
 Розмір:   3.23 GB 
 Оцінка фільму:   9.4/10 (Голосів: 7)
   
Інші релізи
   Смокінг / The Tuxedo (2002) 2xUkr/Eng Arsenfpu  6 / 0   1.68 GB   2015-10-17 11:15 
Гуртомівець 
Свій


З нами з: 14.10.14
Востаннє: 03.12.16
Повідомлень: 91

2015-07-14 13:30  
Цитата:
Особиста оцінка: 6 - третій сорт - не брак

Як на мене доволі непогано, між 9 і 10/10

Premer_Joker 
Новенький


З нами з: 22.01.13
Востаннє: 02.12.16
Повідомлень: 22

2015-07-14 13:46  
Гуртомівець
Непогано, сюжет оригінальний, кумедний але до бійки у кінці фільму. Навіть для Джекі це занадто... IMHO

EvGaS 
Відео Гуртом - підтримка та поширення
Відео Гуртом - підтримка та поширення


З нами з: 27.02.12
Востаннє: 03.12.16
Повідомлень: 2094

2015-07-19 06:03  
Шпигунська пародія на пародійні шпигунські фільми. Не супер, але оригінальна.
Серйозності ніякої, тож й серйозно щось про неї казати нема сенсу. Раз переглянути й підняти настрій.

Ua.bos_01 
VIP


З нами з: 22.06.15
Востаннє: 02.12.16
Повідомлень: 1290

2015-08-17 09:38  
Як на мене, хоча є фаном Джекі, це один з його найгірших фільмів. Є фільми, такі як "Година пік", які переглядав по 7 разів, а цей лише один раз - і все, не тягне більше.
Keltirulla 
VIP


З нами з: 26.08.15
Востаннє: 03.12.16
Повідомлень: 471

2016-04-26 14:35  
гарний фільм, особиста оцінка 9\10
Ваш часовий пояс: GMT + 2 Години

Нова тема   Відповісти