Завантажити та скачати торренти українською


Kroda – Ginnungagap Ginnungagaldr Ginnungakaos (2015) [FLAC] | Folk Black Metal

Нові коментарі

Нова тема   Відповісти
Автор Повідомлення
kolpavel 
VIP


З нами з: 04.05.14
Востаннє: 06.12.16
Повідомлень: 1059

2015-07-12 01:38  
Kroda – Ginnungagap Ginnungagaldr Ginnungakaos (2015) [FLAC] | Folk Black Metal

Kroda – Ginnungagap Ginnungagaldr Ginnungakaos (2015) [FLAC] | Folk Black Metal


Стиль: Folk Pagan Black Metal
Країна, місто: Україна, Львів
Сайти: Офіційний сайт
Видавець: Purity Through Fire (№ за каталогом:PTF037)
Виконавці:
Eisenslav - вокал
Khladogard - гiтара
Hate Jotunhammer – сопiлка
Olgerd - клавішні
Sergfil - гiтара
One Of Thorns - бас
Rungvar - барабани
Пісні:
    01. На Крилах Шторму - (Mikrokosm GinnungaGaldr) On The Wings Of Storm (4:55)
    02. Штрига Повні - Fullmoon Witch (5:21)
    03. Навій Схрон - Navij Skhron (4:18)
    04. Чорні Хребти Карпат - Black Carpathian Spines (4:43)
    05. Прірва Себе - (Mikrokosm GinnungaGap) Avgunn Av Selv (5:17)
    06. Туманом Снігової Імли - By The Mist Of Snowy Haze (4:07)
    07. Здохніть Разом Із Богом Своїм! - Die With Your God! (3:54)
    08. Нічного Неба Очі - (Mikrokosm GinnungaKaos) Nightsky Eyes (5:26)
Cкан диску

Kroda – Ginnungagap Ginnungagaldr Ginnungakaos (2015) [FLAC] | Folk Black Metal
Тривалість: 00:38:06
Мова: українська
Аудіо-кодек: FLAC
Бітрейт: 1077 кб/с
Джерело: рутрекер (ріп mekong)
Додаткова інформація:
Лог
Exact Audio Copy V1.0 beta 6 from 9. April 2015

EAC extraction logfile from 19. June 2015, 3:51

Kroda / GinnungaGap GinnungaGaldr GinnungaKaos

Used drive : ASUS DRW-1608P Adapter: 1 ID: 0

Read mode : Secure
Utilize accurate stream : Yes
Defeat audio cache : Yes
Make use of C2 pointers : No

Read offset correction : 48
Overread into Lead-In and Lead-Out : No
Fill up missing offset samples with silence : Yes
Delete leading and trailing silent blocks : No
Null samples used in CRC calculations : Yes
Used interface : Native Win32 interface for Win NT & 2000

Used output format : User Defined Encoder
Selected bitrate : 768 kBit/s
Quality : High
Add ID3 tag : No
Command line compressor : C:\Program Files (x86)\Exact Audio Copy\FLAC\FLAC.EXE
Additional command line options : -6 -V -T "ARTIST=%artist%" -T "TITLE=%title%" -T "ALBUM=%albumtitle%" -T "DATE=%year%" -T "TRACKNUMBER=%tracknr%" -T "GENRE=%genre%" -T "COMMENT=%comment%" -T "BAND=%albuminterpret%" -T "ALBUMARTIST=%albuminterpret%" -T "COMPOSER=%composer%" %haslyrics%--tag-from-file=LYRICS="%lyricsfile%"%haslyrics% -T "DISCNUMBER=%cdnumber%" -T "TOTALDISCS=%totalcds%" -T "TOTALTRACKS=%numtracks%" %hascover%--picture="%coverfile%"%hascover% %source% -o %dest%

TOC of the extracted CD

Track | Start | Length | Start sector | End sector
---------------------------------------------------------
1 | 0:00.00 | 4:55.55 | 0 | 22179
2 | 4:55.55 | 5:21.56 | 22180 | 46310
3 | 10:17.36 | 4:18.01 | 46311 | 65661
4 | 14:35.37 | 4:45.67 | 65662 | 87103
5 | 19:21.29 | 5:17.29 | 87104 | 110907
6 | 24:38.58 | 4:07.26 | 110908 | 129458
7 | 28:46.09 | 3:54.58 | 129459 | 147066
8 | 32:40.67 | 5:25.71 | 147067 | 171512

Range status and errors

Selected range

Filename D:\Kroda - GinnungaGap GinnungaGaldr GinnungaKaos.wav

Peak level 99.8 %
Extraction speed 6.8 X
Range quality 99.9 %
Test CRC E96BBDAE
Copy CRC E96BBDAE
Copy OK

No errors occurred

AccurateRip summary

Track 1 not present in database
Track 2 not present in database
Track 3 not present in database
Track 4 not present in database
Track 5 not present in database
Track 6 not present in database
Track 7 not present in database
Track 8 not present in database

None of the tracks are present in the AccurateRip database

End of status report

---- CUETools DB Plugin V2.1.6

[CTDB TOCID: eiGatRzMblGR3wWZJD3Tdb6i9y0-] found
Submit result: eiGatRzMblGR3wWZJD3Tdb6i9y0- has been confirmed
Track | CTDB Status
1 | (1/1) Accurately ripped
2 | (1/1) Accurately ripped
3 | (1/1) Accurately ripped
4 | (1/1) Accurately ripped
5 | (1/1) Accurately ripped
6 | (1/1) Accurately ripped
7 | (1/1) Accurately ripped
8 | (1/1) Accurately ripped

==== Log checksum 7FA842F781B40CCDEFF93AE66E575C59454BC6C5CC1F5C929393E58C19BC9BFF ====


Якщо Ви справді бажаєте підтримати українське - після прослуховування, якщо музика вам сподобалась, придбайте ліцензійний диск. Підтримаймо вітчизняних виконавців!


Срібний реліз (на рейтинг впливає 50% завантаженого)
 Трекер:    Зареєстрований   

Завантажити / скачати українську музику



відео для новачків



 Зареєстрований:   2015-07-12 01:38
 Розмір:   533 MB 
 Оцінка музики:   9.2/10 (Голосів: 10)
   
PaGaN 
Частий відвідувач


З нами з: 01.09.09
Востаннє: 22.11.16
Повідомлень: 28

2015-07-15 15:03  
Альбом року!!!
Oleksa9 
Поважний учасник


З нами з: 17.05.12
Востаннє: 06.12.16
Повідомлень: 225

2015-07-19 09:55  
Здохніть Разом з Богом Своїм!

Це так, але за дванадцять років творчості не навчитись вимовляти правильно Ч та Щ це діагноз....

Ваш часовий пояс: GMT + 2 Години

Нова тема   Відповісти