Завантажити та скачати торренти українською


Немовля на прогулянці / Baby's Day Out (1994) 720p Ukr/Eng | Sub Eng

Нові коментарі

Нова тема   Відповісти
Автор Повідомлення
tarasyk98 
Поважний учасник


З нами з: 19.12.13
Востаннє: 03.12.16
Повідомлень: 201

2015-07-11 20:10  
Немовля на прогулянці / Baby's Day Out (1994) 720p Ukr/Eng | Sub Eng

Немовля на прогулянці / Baby's Day Out (1994) 720p Ukr/Eng | Sub Eng


Жанр: сімейний, комедія
Країна: США



Кінокомпанія: 20th Century Fox
Режисер: Патрік Рід Джонсон / Patrick Read Johnson
Актори: Джо Мантенья / Joe Mantegna, Лара Флінн Бойл / Lara Flynn Boyle, Джо Пантольяно / Joe Pantoliano, Браян Хейлі / Brian Haley, Сінтія Ніксон / Cynthia Nixon та інші

Сюжет:
Малюк Бінк мандрує містом цілий день: незвичайні місця, приголомшливі краєвиди... Але він гуляє наодинці! Відчайдушно розшукуваний своїми батьками, відомий завдяки пресі, малюк протистоїть гурту гангстерів, які полюють на нього заради грошей, запропонованих його багатими батьками. Непохитний і зібраний, Бінк, зовсім не усвідомлюючи всіх руйнувань, до яких він призводить, завдасть стільки клопотів бандитам, що ніяких грошей їм не захочеться.


Тривалість: 01:38:49
Якість: 720p
Відео:
кодек:
розмір кадру: 1280 х 692
бітрейт: 3965 кб/с

Аудіо # 1:
мова: українська
переклад: двоголосий закадровий
кодек: 2.0
бітрейт: 192 кб/с
озвучено:

Аудіо # 2:
мова: англійська
переклад: оригінал
кодек: 5.1
бітрейт: 384 кб/с

Субтитри:
мова: англійська
тип: програмні (м'які)
формат: *.srt
MediaInfo
Код:
General
Unique ID                                : 192687255105854472703464992748761474349 (0x90F63727CC36365194D9EA7A1DAB652D)
Complete name                            : D:\Фільми\Baby's Day Out (1994) 720p [Hurtom].mkv
Format                                   : Matroska
Format version                           : Version 4 / Version 2
File size                                : 3.22 GiB
Duration                                 : 1h 38mn
Overall bit rate                         : 4 660 Kbps
Movie name                               : Младенец на прогулке, или ползком от гангстеров (1994) [ 720p]
Encoded date                             : UTC 2015-07-12 11:21:20
Writing application                      : mkvmerge v7.1.0 ('Good Love') 64bit built on Jul 27 2014 13:06:55
Writing library                          : libebml v1.3.0 + libmatroska v1.4.1
DURATION                                 : 01:38:49.536000000
NUMBER_OF_FRAMES                         : 185298
NUMBER_OF_BYTES                          : 284617728
_STATISTICS_WRITING_APP                  : mkvmerge v7.1.0 ('Good Love') 64bit built on Jul 27 2014 13:06:55
_STATISTICS_WRITING_DATE_UTC             : 2015-07-12 11:21:20
_STATISTICS_TAGS                         : BPS DURATION NUMBER_OF_FRAMES NUMBER_OF_BYTES

Video
ID                                       : 1
Format                                   : AVC
Format/Info                              : Advanced Video Codec
Format profile                           : [email protected]
Format settings, CABAC                   : No
Format settings, ReFrames                : 2 frames
Codec ID                                 : V_MPEG4/ISO/AVC
Duration                                 : 1h 38mn
Bit rate                                 : 3 991 Kbps
Width                                    : 1 280 pixels
Height                                   : 692 pixels
Display aspect ratio                     : 1.85:1
Frame rate mode                          : Constant
Frame rate                               : 23.976 fps
Color space                              : YUV
Chroma subsampling                       : 4:2:0
Bit depth                                : 8 bits
Scan type                                : Progressive
Bits/(Pixel*Frame)                       : 0.188
Stream size                              : 2.76 GiB (86%)
Title                                    : Baby's Day Out
Language                                 : Russian
Default                                  : Yes
Forced                                   : No
Color primaries                          : BT.709
Transfer characteristics                 : BT.709
Matrix coefficients                      : BT.709
Color range                              : Limited

Audio #1
ID                                       : 2
Format                                   : AC-3
Format/Info                              : Audio Coding 3
Mode extension                           : CM (complete main)
Format settings, Endianness              : Big
Codec ID                                 : A_AC3
Duration                                 : 1h 38mn
Bit rate mode                            : Constant
Bit rate                                 : 192 Kbps
Channel(s)                               : 2 channels
Channel positions                        : Front: L R
Sampling rate                            : 48.0 KHz
Bit depth                                : 16 bits
Compression mode                         : Lossy
Stream size                              : 136 MiB (4%)
Title                                    : , 2ch, 192 Kbps (DVO) |TET|
Language                                 : Ukrainian
Default                                  : No
Forced                                   : No

Audio #2
ID                                       : 3
Format                                   : AC-3
Format/Info                              : Audio Coding 3
Mode extension                           : CM (complete main)
Format settings, Endianness              : Big
Codec ID                                 : A_AC3
Duration                                 : 1h 38mn
Bit rate mode                            : Constant
Bit rate                                 : 384 Kbps
Channel(s)                               : 6 channels
Channel positions                        : Front: L C R, Side: L R, LFE
Sampling rate                            : 48.0 KHz
Bit depth                                : 16 bits
Compression mode                         : Lossy
Stream size                              : 271 MiB (8%)
Default                                  : No
Forced                                   : No

Text
ID                                       : 4
Format                                   : UTF-8
Codec ID                                 : S_TEXT/UTF8
Codec ID/Info                            : UTF-8 Plain Text
Title                                    : [полный]
Language                                 : English
Default                                  : No
Forced                                   : No

Menu
00:00:00.000                             : en:Main Titles
00:02:47.000                             : en:Baby Bink
00:04:45.000                             : en:The Photographer
00:07:33.000                             : en:The Impostors
00:10:44.000                             : en:A Photo Sitting
00:13:28.000                             : en:Abduction
00:17:47.000                             : en:Naptime
00:22:36.000                             : en:Out the Window
00:27:35.000                             : en:Down the Elevator
00:28:57.000                             : en:On the Bus
00:34:21.000                             : en:Hitching a Ride
00:42:17.000                             : en:At the Zoo
00:54:18.000                             : en:In the Park
01:05:01.000                             : en:On the Job
01:17:35.000                             : en:Stuck
01:23:31.000                             : en:Police Report
01:25:42.000                             : en:Reunited
01:29:48.000                             : en:Hearing Babies
01:32:53.000                             : en:Back Home
01:33:47.000                             : en:End Titles

Скріншоти




Джерело:
Особиста оцінка: 0 - не дивився

Подяка п. OlegCena та сайту за українську доріжку та сайту за відеоряд


Срібний реліз (на рейтинг впливає 50% завантаженого)
 Трекер:    Зареєстрований   

Завантажити / скачати фільм українською



відео для новачків



 Зареєстрований:   2015-07-12 16:21
 Розмір:   3.22 GB 
 Оцінка фільму:   10/10 (Голосів: 6)
   
Інші релізи
alexcaptain 
Свій


З нами з: 20.03.14
Востаннє: 03.12.16
Повідомлень: 74

2015-07-13 16:55  
Просто бомбезний фільм
Ваш часовий пояс: GMT + 2 Години

Нова тема   Відповісти