Завантажити та скачати торренти українською


Сплеск / Splash (1984) Ukr/Eng | Sub Eng

Нові коментарі

Нова тема   Відповісти
Автор Повідомлення
Anonymous 







2015-07-08 09:18  
Сплеск / Splash (1984) Ukr/Eng | Sub Eng



Українізований та альтернативний постери




повнорозмірні зображення відкриються по кліку (з натиснутим CTRL чи кліком середньою кнопкою мишки - у іншій вкладці)


Жанр: фентезі, мелодрама, комедія
Країна: США



Кінокомпанія: Touchstone Pictures
Режисер: Рон Говард / Ron Howard
Актори: Том Генкс / Tom Hanks, Деріл Ганна / Daryl Hannah, Юджин Леві / Eugene Levy, Джон Кенді / John Candy, Доді Ґудмен / Dody Goodman, Шеккі Ґрін / Shecky Greene, Річард Б. Шалл / Richard B. Shull, Боббі Ді Чікко / Bobby Di Cicco, Говард Морріс / Howard Morris та ініші

Сюжет:
Любов раптова, несподівана, неминуча. Вона спалахує, як полум'я, але цю іскорку потрібно вміти зберегти. Особливо, коли твоя кохана так виділяється з натовпу. У неї чутлива, ніжна душа, небесної краси очі, густе світле волосся, вона - ідеал, за одним маленьким виключенням: вона - русалка.

Закоханим доведеться пережити багато пригод, багато труднощів і перешкод, але лише справжнє кохання дозволить їм, незважаючи на примхи долі, залишитися разом. Адже ласкаве блакитне море сховає їх від ворогів.


Рейтинг MPAA: PG - рекомендується присутність батьків
Вікова категорія: 12+

Тривалість: 01:49:47
Якість:
Відео:
кодек: build 65
розмір кадру: 704 х 384
бітрейт: 2057 кбіт/с

Аудіо # 1:
мова: українська
переклад: двоголосий закадровий
кодек: 5.1
бітрейт: 384 кбіт/с

Аудіо # 2:
мова: англійська
переклад: оригінал
кодек: 5.1
бітрейт: 384 кбіт/с

Субтитри: (завантажити)
мова: англійська (SDH)
тип: програмні (м'які)
формат: *.srt
MediaInfo
Код:
General
Complete name               : Splash (1984) [Ukr,Eng] [Hurtom & HQClub].avi
Format                      : AVI
Format/Info                 : Audio Video Interleave
Format profile              : OpenDML
File size                   : 2.18 GiB
Duration                    : 1h 49mn
Overall bit rate            : 2 842 Kbps
Movie name                  : Сплеск / Splash (1984)
Director                    : igor911 & sociolog_melvas
Genre                       : фентезі, мелодрама, комедія
Writing application         : VirtualDubModRus 1.5.10.2 (build 2540/release)
Copyright                   : Hurtom & HQClub
Comment                     : 07.07.2015

Video
ID                          : 0
Format                      : MPEG-4 Visual
Format profile              : Advanced [email protected]
Format settings, BVOP       : 1
Format settings, QPel       : No
Format settings, GMC        : No warppoints
Format settings, Matrix     : Custom
Codec ID                    :
Codec ID/Hint               :
Duration                    : 1h 49mn
Bit rate                    : 2 057 Kbps
Width                       : 704 pixels
Height                      : 384 pixels
Display aspect ratio        : 1.85:1
Frame rate                  : 23.976 fps
Color space                 : YUV
Chroma subsampling          : 4:2:0
Bit depth                   : 8 bits
Scan type                   : Progressive
Compression mode            : Lossy
Bits/(Pixel*Frame)          : 0.317
Stream size                 : 1.58 GiB (72%)
Writing library             : 65

Audio #1
ID                          : 1
Format                      : AC-3
Format/Info                 : Audio Coding 3
Mode extension              : CM (complete main)
Format settings, Endianness : Big
Codec ID                    : 2000
Duration                    : 1h 49mn
Bit rate mode               : Constant
Bit rate                    : 384 Kbps
Channel(s)                  : 6 channels
Channel positions           : Front: L C R, Side: L R, LFE
Sampling rate               : 48.0 KHz
Compression mode            : Lossy
Stream size                 : 301 MiB (14%)
Alignment                   : Split accross interleaves
Interleave, duration        : 42 ms (1.00 video frame)
Interleave, preload duratio : 500 ms
Title                       : DVO [Novyj]

Audio #2
ID                          : 2
Format                      : AC-3
Format/Info                 : Audio Coding 3
Mode extension              : CM (complete main)
Format settings, Endianness : Big
Codec ID                    : 2000
Duration                    : 1h 49mn
Bit rate mode               : Constant
Bit rate                    : 384 Kbps
Channel(s)                  : 6 channels
Channel positions           : Front: L C R, Side: L R, LFE
Sampling rate               : 48.0 KHz
Compression mode            : Lossy
Stream size                 : 302 MiB (14%)
Alignment                   : Split accross interleaves
Interleave, duration        : 42 ms (1.00 video frame)
Interleave, preload duratio : 500 ms




Джерела та подяки: &
ріп відео, оригінальні звук та субтитри - sociolog_melvas (HQClub); українська доріжка - rooster - запис з ТБ та зведення; українізований постер - Дмитро митро (всі - Гуртом).


ЗАЛИШАЙТЕСЬ ЯКОМОГА ДОВШЕ НА РОЗДАЧІ!

СКАЧАВ САМ - ДАЙ СКАЧАТИ ІНШИМ


Срібний реліз (на рейтинг впливає 50% завантаженого)
 Трекер:    Зареєстрований   

Завантажити / скачати фільм українською



відео для новачків



 Зареєстрований:   2015-07-08 09:18
 Розмір:   2.18 GB 
 Оцінка фільму:   4.8/10 (Голосів: 19)
   
Інші релізи
   Сплеск / Splash (1984) 720p Ukr/Eng | Sub Eng igor911  2 / 0   6.23 GB   2015-07-08 09:09 
Ваш часовий пояс: GMT + 2 Години

Нова тема   Відповісти