Завантажити та скачати торренти українською


Я їду до мами (2015) 1080p

Нові коментарі

Нова тема   Відповісти
Автор Повідомлення
tarasyk98 
Поважний учасник


З нами з: 19.12.13
Востаннє: 07.12.16
Повідомлень: 201

2015-07-03 11:52  
Я їду до мами (2015) 1080p

Я їду до мами (2015) 1080p


Жанр: комедія, короткометражний
Країна: Україна

Кінокомпанія: Nord Production
Режисер: Михайло Хома, Тарас Дронь
Актори: Михайло Хома, Олег Турко, Назар Гук

Сюжет:
Події розгортаються у рідному для Дзідзя, Лесика та Юліка місті – Новояворівську. Всім давно відомо, що Дзідзьова мама поїхала на заробітки до Португалії 15 років тому і залишилася там жити. Вони спілкувались лише по скайпу та телефону, але досі не бачились наживо, бо не мали такої можливості. Лесик і Юлік вигадують чутки і кепкують з Дзідзя, що його мама вирішила вийти заміж за португальця. Дзідзьо з того не радий і хоче поїхати до мами, щоб з'ясувати, чи то правда. Хлопцям дуже вчасно випадає реальна можливість поїхати в гості до мами Галини в Португалію через місцевого торговця-спекулянта на прізвисько Рембо, який часто їздить за кордон і точно знає, де живе Дзідзьова мама. Але за допомогу він просить зробити одну послугу...


Тривалість: 00:13:54
Якість: 1080p
Відео:
кодек:
розмір кадру: 1920 х 1080
бітрейт: 2734 кб/с

Аудіо:
мова: українська
переклад: оригінал
кодек: 2.0
бітрейт: 126 кб/с
MediaInfo
General
Complete name : D:\Відео\Я їду до мами (2015) 1080p [Hurtom].mp4
Format : MPEG-4
Format profile : Base Media
Codec ID : isom
File size : 285 MiB
Duration : 13mn 54s
Overall bit rate : 2 865 Kbps
Writing application : Lavf55.33.100

Video
ID : 1
Format : AVC
Format/Info : Advanced Video Codec
Format profile : [email protected]
Format settings, CABAC : Yes
Format settings, ReFrames : 2 frames
Codec ID : avc1
Codec ID/Info : Advanced Video Coding
Duration : 13mn 54s
Duration_FirstFrame : -40ms
Bit rate : 2 734 Kbps
Width : 1 920 pixels
Height : 1 080 pixels
Display aspect ratio : 16:9
Frame rate mode : Variable
Frame rate : 25.000 fps
Minimum frame rate : 25.000 fps
Maximum frame rate : 25.014 fps
Color space : YUV
Chroma subsampling : 4:2:0
Bit depth : 8 bits
Scan type : Progressive
Bits/(Pixel*Frame) : 0.053
Stream size : 272 MiB (95%)

Audio
ID : 2
Format :
Format/Info : Advanced Audio Codec
Format profile : LC
Codec ID : 40
Duration : 13mn 54s
Bit rate mode : Constant
Bit rate : 126 Kbps
Channel(s) : 2 channels
Channel positions : Front: L R
Sampling rate : 44.1 KHz
Compression mode : Lossy
Stream size : 12.5 MiB (4%)

Скріншоти




Джерело:
Особиста оцінка: 7 - моїй подрузі не сподобалося


 Трекер:    Зареєстрований   

Завантажити / скачати кліп українською



відео для новачків



 Зареєстрований:   2015-07-03 14:01
 Розмір:   285 MB 
 Оцінка кліпу:   4.7/10 (Голосів: 9)
   
bot 
робот


З нами з: 30.09.07
Востаннє: 26.05.05
Повідомлень: 16024

2015-07-03 11:52  
Тему перенесено з Художні фільми до форуму Анонси релізів


tarasyk98

bot 
робот


З нами з: 30.09.07
Востаннє: 26.05.05
Повідомлень: 16024

2015-07-03 14:01  
Тему перенесено з Анонси релізів до форуму Фільми в HD


tarasyk98

igor911 
Відео Гуртом
Відео Гуртом


З нами з: 18.01.08
Востаннє: 07.12.16
Повідомлень: 5171

2015-07-03 22:36  
tarasyk98, може логічніше буде додати в назву "Дзідзьо - ..." і перенести реліз у розділ Музичне відео?
bot 
робот


З нами з: 30.09.07
Востаннє: 26.05.05
Повідомлень: 16024

2015-07-03 22:48  
Тему перенесено з Фільми в HD до форуму Музичне відео


igor911

Ваш часовий пояс: GMT + 2 Години

Нова тема   Відповісти