Завантажити та скачати торренти українською


Підлітки-мутанти черепашки-ніндзя / Teenage Mutant Ninja Turtles (2014) 720p-mini (60 fps)

Нові коментарі

Нова тема   Відповісти
Автор Повідомлення
Drool 
VIP


З нами з: 17.04.10
Востаннє: 06.12.16
Повідомлень: 1264

2015-07-02 08:35  
Підлітки-мутанти черепашки-ніндзя / Teenage Mutant Ninja Turtles (2014) 720p-mini (60 fps)

Жанр: екшн, пригодницький, комедія, фантастика
Країна: США



Кінокомпанія: Paramount Pictures, Nickelodeon Movies, Platinum Dunes
Режисер: Джонатан Лібесман
Актори: Меґан Фокс, Вілл Арнет, Вільям Фіхтнер, Алан Річсон, Ноель Фішер, Піт Пложек, Джоні Ноксвіл та інші

Сюжет:
Місто поглинула пітьма, зловмисники контролюють усі сфери від поліції до політиків. Майбутнє виглядає вкрай песимістично, допоки з нетрів каналізації не з’являються четверо братів Черепашок-Ніндзя. У команді з безстрашною журналісткою Ейпріл О'Ніл та саркастичним оператором Фенвіком вони кинуть виклик могутньому і підступному ворогові.


Тривалість: 01:41:17
Якість: 720p-mini
Відео:
кодек:
розмір кадру: 1280x534
бітрейт: 5120 кб/с
частота кадрів: 59.940 кадрів/с

Аудіо:
мова: українська
переклад: професійний дубльований
кодек: 5.1
бітрейт: 448 кб/с

Джерело озвучення:


Субтитри:
мова: українська
тип: програмні (м'які) форсовані
формат: *.srt
MediaInfo
General
Unique ID : 141198593683661152441679532134799054312 (0x6A39DC26DE1CE57CEA937D11CB6D15E8)
Complete name : /mnt/disk_d/Video/Teenage.Mutant.Ninja.Turtles.2014.Ukr.Dub-DVD..720p-mini.60fps.mkv
Format : Matroska
Format version : Version 4 / Version 2
File size : 3.94 GiB
Duration : 1h 41mn
Overall bit rate : 5 571 Kbps
Movie name : Підлітки-мутанти черепашки-ніндзя / Teenage Mutant Ninja Turtles (2014) 720p-mini [60 fps] [NNNB]
Encoded date : UTC 2015-07-02 08:09:22
Writing application : mkvmerge v7.7.0 ('Six Voices') 64bit built on Apr 26 2015 19:42:39
Writing library : libebml v1.3.1 + libmatroska v1.4.2
DURATION : 01:18:39.136000000
NUMBER_OF_FRAMES : 22
NUMBER_OF_BYTES : 974
_STATISTICS_WRITING_APP : mkvmerge v7.7.0 ('Six Voices') 64bit built on Apr 26 2015 19:42:39
_STATISTICS_WRITING_DATE_UTC : 2015-07-02 08:09:22
_STATISTICS_TAGS : BPS DURATION NUMBER_OF_FRAMES NUMBER_OF_BYTES

Video
ID : 1
Format : AVC
Format/Info : Advanced Video Codec
Format profile : [email protected]
Format settings, CABAC : Yes
Format settings, ReFrames : 9 frames
Codec ID : V_MPEG4/ISO/AVC
Duration : 1h 41mn
Bit rate : 5 120 Kbps
Width : 1 280 pixels
Height : 534 pixels
Display aspect ratio : 2.40:1
Frame rate mode : Constant
Frame rate : 59.880 fps
Original frame rate : 59.940 fps
Color space : YUV
Chroma subsampling : 4:2:0
Bit depth : 8 bits
Scan type : Progressive
Bits/(Pixel*Frame) : 0.125
Stream size : 3.55 GiB (90%)
Title : Підлітки-мутанти черепашки-ніндзя / Teenage Mutant Ninja Turtles (2014) 720p-mini [60 fps] [NNNB]
Writing library : core 130 r2273 b3065e6
Encoding settings : cabac=1 / ref=9 / deblock=1:0:0 / analyse=0x3:0x133 / me=umh / subme=10 / psy=1 / psy_rd=1.00:0.00 / mixed_ref=1 / me_range=32 / chroma_me=1 / trellis=2 / 8x8dct=1 / cqm=0 / deadzone=21,11 / fast_pskip=0 / chroma_qp_offset=-2 / threads=12 / lookahead_threads=1 / sliced_threads=0 / nr=0 / decimate=1 / interlaced=0 / bluray_compat=0 / constrained_intra=0 / bframes=5 / b_pyramid=2 / b_adapt=2 / b_bias=0 / direct=3 / weightb=1 / open_gop=0 / weightp=2 / keyint=250 / keyint_min=25 / scenecut=40 / intra_refresh=0 / rc=2pass / mbtree=0 / bitrate=5120 / ratetol=1.0 / qcomp=0.60 / qpmin=0 / qpmax=69 / qpstep=4 / cplxblur=20.0 / qblur=0.5 / ip_ratio=1.40 / pb_ratio=1.30 / aq=2:1.00
Default : Yes
Forced : Yes
DURATION : 01:41:17.928000000
NUMBER_OF_FRAMES : 364311
NUMBER_OF_BYTES : 3889624795
_STATISTICS_WRITING_APP : mkvmerge v7.7.0 ('Six Voices') 64bit built on Apr 26 2015 19:42:39
_STATISTICS_WRITING_DATE_UTC : 2015-07-02 08:09:22
_STATISTICS_TAGS : BPS DURATION NUMBER_OF_FRAMES NUMBER_OF_BYTES

Audio
ID : 2
Format : AC-3
Format/Info : Audio Coding 3
Mode extension : CM (complete main)
Format settings, Endianness : Big
Codec ID : A_AC3
Duration : 1h 41mn
Bit rate mode : Constant
Bit rate : 448 Kbps
Channel(s) : 6 channels
Channel positions : Front: L C R, Side: L R, LFE
Sampling rate : 48.0 KHz
Bit depth : 16 bits
Compression mode : Lossy
Stream size : 325 MiB (8%)
Title : Рідна мова ( 5.1, 448 kbps, DVD)
Language : Ukrainian
Default : Yes
Forced : Yes

Text
ID : 3
Format : UTF-8
Codec ID : S_TEXT/UTF8
Codec ID/Info : UTF-8 Plain Text
Title : Українські (форсовані)
Language : Ukrainian
Default : Yes
Forced : Yes
Скріншоти



Джерело:
Особиста оцінка: 8 - мені сподобалося


 Трекер:    Зареєстрований   

Завантажити / скачати фільм українською



відео для новачків



 Зареєстрований:   2015-07-02 10:47
 Розмір:   3.94 GB 
 Оцінка фільму:   9.5/10 (Голосів: 26)
   
bot 
робот


З нами з: 30.09.07
Востаннє: 26.05.05
Повідомлень: 16003

2015-07-02 08:36  
Тему перенесено з Фільми в HD до форуму Анонси релізів


Drool

1009 
Поважний учасник


З нами з: 02.09.14
Востаннє: 06.12.16
Повідомлень: 230

2015-07-02 09:05  
А коли буде?
Drool 
VIP


З нами з: 17.04.10
Востаннє: 06.12.16
Повідомлень: 1264

2015-07-02 09:08  
1009 написано:
А коли буде?
Десь через годину-півтори.
1009 
Поважний учасник


З нами з: 02.09.14
Востаннє: 06.12.16
Повідомлень: 230

2015-07-02 09:16  
Це дуже гарна новина
bot 
робот


З нами з: 30.09.07
Востаннє: 26.05.05
Повідомлень: 16003

2015-07-02 10:47  
Тему перенесено з Анонси релізів до форуму Фільми в HD


Drool

1009 
Поважний учасник


З нами з: 02.09.14
Востаннє: 06.12.16
Повідомлень: 230

2015-07-07 10:04  
Я роздаю, а в рейтингу нічого не зараховується, чому?
Що мені робити?

Drool 
VIP


З нами з: 17.04.10
Востаннє: 06.12.16
Повідомлень: 1264

2015-07-08 11:09  
1009 написано:
Я роздаю, а в рейтингу нічого не зараховується, чому?
Що мені робити?

Та наче написано, що ви роздали 1,4 гектари.

1009 
Поважний учасник


З нами з: 02.09.14
Востаннє: 06.12.16
Повідомлень: 230

2015-07-08 14:40  
У мене написано що я роздав 1,61 гектари
Drool 
VIP


З нами з: 17.04.10
Востаннє: 06.12.16
Повідомлень: 1264

2015-07-09 19:57  
1009 написано:
У мене написано що я роздав 1,61 гектари
Так може просто не встигла статистика оновитись на сайті.
Ваш часовий пояс: GMT + 2 Години

Нова тема   Відповісти