Завантажити та скачати торренти українською


Mortalium - A Gap between Birth and Death (2013) [FLAC] | Gothic/Death doom metal

Нові коментарі

Нова тема   Відповісти
Останній раз роздавалося Sevlin (2016-10-29)
Автор Повідомлення
kolpavel 
VIP


З нами з: 04.05.14
Востаннє: 09.12.16
Повідомлень: 1061

2015-06-30 19:15  
Mortalium - A Gap between Birth and Death (2013) [FLAC] | Gothic/Death doom metal

Mortalium - A Gap between Birth and Death (2013) [FLAC] | Gothic/Death doom metal


Стиль: Gothic Death doom metal
Країна, місто: Україна, Харків
Сайти: Офіційний сайт
Видавець: Metal Renaissance Records
Виконавці:
Олексій Wiking Лукашов – гітара
Сергій Navi Юхно – бас
Марія Manetta Носік – вокал, гітара
Ярослав knell Бадрадінов – клавіші, вокал
Олексій AllexBlacker Силенко - ударні
Пісні:
    01. When I Decide To Die (6:30)
    02. Frozen Night (3:20)
    03. Perfect Shelter (5:30)
    04. Discrepancy (4:03)
    05. Funeral Of All Hopes (5:51)
    06. Prophet (2:52)
    07. Unaccepted (4:41)
    08. Life Suddenly Ends (4:05)
    09. Lullaby (4:58)
    10. My Stillborn Child (5:02)

Тривалість: 00:47:00
Мова: англійська
Аудіо-кодек: FLAC
Бітрейт: 1020 кб/с
Джерело: Інтернет
Додаткова інформація:
Лог EAC:
Exact Audio Copy V1.0 beta 3 from 29. August 2011

EAC extraction logfile from 25. July 2013, 20:26

Mortalium / A Gap Between Birth And Death

Used drive : ASUS DRW-24B3LT Adapter: 3 ID: 1

Read mode : Secure
Utilize accurate stream : Yes
Defeat audio cache : Yes
Make use of C2 pointers : No

Read offset correction : 6
Overread into Lead-In and Lead-Out : No
Fill up missing offset samples with silence : Yes
Delete leading and trailing silent blocks : No
Null samples used in CRC calculations : Yes
Used interface : Native Win32 interface for Win NT & 2000

Used output format : User Defined Encoder
Selected bitrate : 1024 kBit/s
Quality : High
Add ID3 tag : No
Command line compressor : C:\Program Files (x86)\Exact Audio Copy\FLAC\FLAC.EXE
Additional command line options : -6 -V -T "ARTIST=%artist%" -T "TITLE=%title%" -T "ALBUM=%albumtitle%" -T "DATE=%year%" -T "TRACKNUMBER=%tracknr%" -T "GENRE=%genre%" -T "COMMENT=%comment%" -T "BAND=%albuminterpret%" -T "ALBUMARTIST=%albuminterpret%" -T "COMPOSER=%composer%" %haslyrics%--tag-from-file=LYRICS="%lyricsfile%"%haslyrics% -T "DISCNUMBER=%cdnumber%" -T "TOTALDISCS=%totalcds%" -T "TOTALTRACKS=%numtracks%" %hascover%--picture="%coverfile%"%hascover% %source% -o %dest%

TOC of the extracted CD

Track | Start | Length | Start sector | End sector
---------------------------------------------------------
1 | 0:00.00 | 6:32.31 | 0 | 29430
2 | 6:32.31 | 3:22.28 | 29431 | 44608
3 | 9:54.59 | 5:32.64 | 44609 | 69572
4 | 15:27.48 | 4:03.00 | 69573 | 87797
5 | 19:30.48 | 5:51.34 | 87798 | 114156
6 | 25:22.07 | 2:52.07 | 114157 | 127063
7 | 28:14.14 | 4:40.61 | 127064 | 148124
8 | 32:55.00 | 4:05.05 | 148125 | 166504
9 | 37:00.05 | 4:57.40 | 166505 | 188819
10 | 41:57.45 | 5:02.20 | 188820 | 211489

Range status and errors

Selected range

Filename C:\MY_MUSIC\MMM\Mortalium 2013 A Gap Between Birth And Death.wav

Peak level 98.9 %
Extraction speed 8.6 X
Range quality 100.0 %
Copy CRC 61248EA2
Copy OK

No errors occurred

AccurateRip summary

Track 1 not present in database
Track 2 not present in database
Track 3 not present in database
Track 4 not present in database
Track 5 not present in database
Track 6 not present in database
Track 7 not present in database
Track 8 not present in database
Track 9 not present in database
Track 10 not present in database

None of the tracks are present in the AccurateRip database

End of status report


Якщо Ви справді бажаєте підтримати українське - після прослуховування, якщо музика вам сподобалась, придбайте ліцензійний диск. Підтримаймо вітчизняних виконавців!


Срібний реліз (на рейтинг впливає 50% завантаженого)
 Трекер:    Зареєстрований   

Завантажити / скачати українську музику



відео для новачків



 Зареєстрований:   2015-06-30 19:15
 Розмір:   367 MB 
 Оцінка музики:   10/10 (Голосів: 2)
   
kolpavel 
VIP


З нами з: 04.05.14
Востаннє: 09.12.16
Повідомлень: 1061

2015-06-30 21:16  
Ваш часовий пояс: GMT + 2 Години

Нова тема   Відповісти