Завантажити та скачати торренти українською


Gogol Bordello vs. Tamir Muskat - J.U.F. (2004) [FLAC] | Punk / Folk

Нові коментарі

Нова тема   Відповісти
Останній раз роздавалося kolpavel (2016-11-14)
Автор Повідомлення
kolpavel 
VIP


З нами з: 04.05.14
Востаннє: 03.12.16
Повідомлень: 1060

2015-06-29 13:04  
Gogol Bordello vs. Tamir Muskat - J.U.F. (2004) [FLAC] | Punk / Folk

Gogol Bordello vs. Tamir Muskat - J.U.F. (2004) [FLAC] | Punk / Folk


Стиль: Punk, Dub, Folk
Країна, місто: США, Нью-Йорк
Сайти: Офіційний сайт
Видавець: Stinky Records
Виконавці:
Євген Гудзь (гітара, вокал) - Gogol Bordello
Орі Каплан (саксофон) - Gogol Bordello
Орен Каплан (гітара) - Gogol Bordello
Сергій Рябцев (скрипка) - Gogol Bordello
Юрій Лемешев (аккордеон) - Gogol Bordello
Тамір Мускат (електронні інструменти)
Вікторія Хана (бек-вокал)
Пісні:
    1. Gypsy Part of Town 4:55
    2. When I Was a Little Spy 4:53
    3. Super Rifle (Balkan Express Train Robbery) 5:02
    4. J.U.F. Dub 4:33
    5. Bassar (Spanish Car Service Special) 3:31
    6. Last Wish of the Bride 4:58
    7. Onto Transmigration 5:44
    8. Balkanization of Amerikanization 5:20
    9. Roumania 3:34
    10. Panic So Charming (What the Fuck Style) 3:53
    11. Samiao's Day 2:55
    12. Muskat (Slishal, No Ne Zapisal) 5:32

Тривалість: 00:54:58
Мова: українська (3,6), російська (4,12), англійська (1,2,5,7,8,9,10,11)
Аудіо-кодек: FLAC
Бітрейт: 799-943 кб/с
Джерело: Інтернет
Додаткова інформація:
Лог EAC:
Exact Audio Copy V0.99 prebeta 4 from 23. January 2008

EAC extraction logfile from 5. January 2009, 19:42

J.U.F. / Gogol Bordello vs. Tamir Muskat

Used drive : Memorex DVD16+/-DL4RWlD2 Adapter: 3 ID: 0

Read mode : Secure
Utilize accurate stream : Yes
Defeat audio cache : Yes
Make use of C2 pointers : No

Read offset correction : 12
Overread into Lead-In and Lead-Out : No
Fill up missing offset samples with silence : Yes
Delete leading and trailing silent blocks : No
Null samples used in CRC calculations : Yes
Used interface : Native Win32 interface for Win NT & 2000
Gap handling : Appended to previous track

Used output format : User Defined Encoder
Selected bitrate : 320 kBit/s
Quality : High
Add ID3 tag : No
Command line compressor : C:\Program Files\Exact Audio Copy\Flac\flac.exe
Additional command line options : -V -8 -T "artist=%a" -T "title=%t" -T "album=%g" -T "date=%y" -T "tracknumber=%n" -T "genre=%m" %s

TOC of the extracted CD

Track | Start | Length | Start sector | End sector
---------------------------------------------------------
1 | 0:00.00 | 4:55.64 | 0 | 22188
2 | 4:55.64 | 4:53.35 | 22189 | 44198
3 | 9:49.24 | 5:02.46 | 44199 | 66894
4 | 14:51.70 | 4:33.63 | 66895 | 87432
5 | 19:25.58 | 3:31.06 | 87433 | 103263
6 | 22:56.64 | 4:58.02 | 103264 | 125615
7 | 27:54.66 | 5:44.72 | 125616 | 151487
8 | 33:39.63 | 5:20.15 | 151488 | 175502
9 | 39:00.03 | 3:34.36 | 175503 | 191588
10 | 42:34.39 | 3:53.43 | 191589 | 209106
11 | 46:28.07 | 2:55.19 | 209107 | 222250
12 | 49:23.26 | 5:32.71 | 222251 | 247221

Track 1

Filename C:\Users\Sasha\Music\J.U.F\Gogol Bordello vs. Tamir Muskat (FLAC)\01 - J.U.F. - Gypsy Part of Town.wav

Pre-gap length 0:00:02.00

Peak level 100.0 %
Track quality 99.9 %
Test CRC 5A58552E
Copy CRC 5A58552E
Accurately ripped (confidence 2) [4F5EBBA1]
Copy OK

Track 2

Filename C:\Users\Sasha\Music\J.U.F\Gogol Bordello vs. Tamir Muskat (FLAC)\02 - J.U.F. - When I Was a Little Spy.wav

Peak level 96.5 %
Track quality 100.0 %
Test CRC 048A6E04
Copy CRC 048A6E04
Accurately ripped (confidence 2) [C1BE05D4]
Copy OK

Track 3

Filename C:\Users\Sasha\Music\J.U.F\Gogol Bordello vs. Tamir Muskat (FLAC)\03 - J.U.F. - Super Rifle (Balkan Express Train Robbery).wav

Peak level 100.0 %
Track quality 100.0 %
Test CRC 1651BF6F
Copy CRC 1651BF6F
Accurately ripped (confidence 2) [08DD2D07]
Copy OK

Track 4

Filename C:\Users\Sasha\Music\J.U.F\Gogol Bordello vs. Tamir Muskat (FLAC)\04 - J.U.F. - J.U.F. Dub.wav

Peak level 93.1 %
Track quality 100.0 %
Test CRC 54CCCE25
Copy CRC 54CCCE25
Accurately ripped (confidence 2) [4F9EF132]
Copy OK

Track 5

Filename C:\Users\Sasha\Music\J.U.F\Gogol Bordello vs. Tamir Muskat (FLAC)\05 - J.U.F. - Bassar (Spanish Car Service Special).wav

Peak level 100.0 %
Track quality 100.0 %
Test CRC AEF7702E
Copy CRC AEF7702E
Accurately ripped (confidence 2) [6A915083]
Copy OK

Track 6

Filename C:\Users\Sasha\Music\J.U.F\Gogol Bordello vs. Tamir Muskat (FLAC)\06 - J.U.F. - Last Wish of the Bride.wav

Peak level 100.0 %
Track quality 100.0 %
Test CRC 2755B162
Copy CRC 2755B162
Accurately ripped (confidence 2) [2D639227]
Copy OK

Track 7

Filename C:\Users\Sasha\Music\J.U.F\Gogol Bordello vs. Tamir Muskat (FLAC)\07 - J.U.F. - Onto Transmigration.wav

Peak level 100.0 %
Track quality 100.0 %
Test CRC F0374E51
Copy CRC F0374E51
Accurately ripped (confidence 2) [9DD5405D]
Copy OK

Track 8

Filename C:\Users\Sasha\Music\J.U.F\Gogol Bordello vs. Tamir Muskat (FLAC)\08 - J.U.F. - Balkanization of Amerikanization.wav

Peak level 100.0 %
Track quality 100.0 %
Test CRC EF376B50
Copy CRC EF376B50
Accurately ripped (confidence 2) [9986DED7]
Copy OK

Track 9

Filename C:\Users\Sasha\Music\J.U.F\Gogol Bordello vs. Tamir Muskat (FLAC)\09 - J.U.F. - Roumania.wav

Peak level 100.0 %
Track quality 100.0 %
Test CRC 3C1B004D
Copy CRC 3C1B004D
Accurately ripped (confidence 2) [7EF61860]
Copy OK

Track 10

Filename C:\Users\Sasha\Music\J.U.F\Gogol Bordello vs. Tamir Muskat (FLAC)\10 - J.U.F. - Panic So Charming (What the Fuck Style).wav

Peak level 100.0 %
Track quality 100.0 %
Test CRC E93CD8C6
Copy CRC E93CD8C6
Accurately ripped (confidence 2) [BB40B5CD]
Copy OK

Track 11

Filename C:\Users\Sasha\Music\J.U.F\Gogol Bordello vs. Tamir Muskat (FLAC)\11 - J.U.F. - Samiao's Day.wav

Peak level 100.0 %
Track quality 100.0 %
Test CRC C398C987
Copy CRC C398C987
Accurately ripped (confidence 2) [C06A5A33]
Copy OK

Track 12

Filename C:\Users\Sasha\Music\J.U.F\Gogol Bordello vs. Tamir Muskat (FLAC)\12 - J.U.F. - Muskat (Slishal, No Ne Zapisal).wav

Peak level 100.0 %
Track quality 100.0 %
Test CRC 8354A73F
Copy CRC 8354A73F
Accurately ripped (confidence 2) [77F10E9D]
Copy OK

All tracks accurately ripped

No errors occurred

End of status report


Якщо Ви справді бажаєте підтримати українське - після прослуховування, якщо музика вам сподобалась, придбайте ліцензійний диск. Підтримаймо вітчизняних виконавців!


Срібний реліз (на рейтинг впливає 50% завантаженого)
 Трекер:    Зареєстрований   

Завантажити / скачати українську музику



відео для новачків



 Зареєстрований:   2015-06-29 13:04
 Розмір:   354 MB 
 Оцінка музики:   10/10 (Голосів: 3)
   
fara1999 
VIP


З нами з: 01.11.09
Востаннє: 04.12.16
Повідомлень: 309

2015-06-29 18:53  
Цей альбом у mp3:
http://toloka.to/t31468

kolpavel 
VIP


З нами з: 04.05.14
Востаннє: 03.12.16
Повідомлень: 1060

2015-06-29 20:42  
Тут MP3 - 320 кб/с - http://toloka.to/t66736 з сканами.
Ваш часовий пояс: GMT + 2 Години

Нова тема   Відповісти