Завантажити та скачати торренти українською


Русич - In the Savage Battles (2007) [FLAC] | Pagan Metal / RAC

Нові коментарі

Нова тема   Відповісти
Останній раз роздавалося Myfordownloads (2016-10-09)
Автор Повідомлення
kolpavel 
VIP


З нами з: 04.05.14
Востаннє: 04.12.16
Повідомлень: 1060

2015-06-28 18:45  
Русич - In the Savage Battles (2007) [FLAC] | Pagan Metal / RAC

Русич - In the Savage Battles (2007) [FLAC] | Pagan Metal / RAC


Стиль: Pagan Metal RAC
Країна, місто: Україна, Київ
Сайти: Офіційний сайт
Видавець: Strong Survive Records
Виконавці:
Владислав - вокал
Дмитро - гітара
В’ячеслав - ударні
Олексій - гітара (сесійний)
Сергій - бас (сесійний)
Пісні:
    1. Интро
    2. Вновь обман
    3. Руны начертаны – знать быль
    4. Хмурое небо над землёю
    5. Средь лютых битв
    6. Сакральная заповедь
    7. Дорогой Богов

Тривалість: 00:46:40
Мова: українська (5), російська (2-4,6), без мови (1,7)
Аудіо-кодек: FLAC
Бітрейт: 872 кб/с
Джерело: Інтернет
Додаткова інформація:
Лог:
Exact Audio Copy V0.99 prebeta 4 from 23. January 2008

EAC extraction logfile from 23. January 2011, 20:12

Rusich / In The Savage Battles

Used drive : Optiarc DVD RW AD-7243S Adapter: 2 ID: 0

Read mode : Secure
Utilize accurate stream : Yes
Defeat audio cache : Yes
Make use of C2 pointers : No

Read offset correction : 48
Overread into Lead-In and Lead-Out : No
Fill up missing offset samples with silence : Yes
Delete leading and trailing silent blocks : No
Null samples used in CRC calculations : Yes
Used interface : Installed external ASPI interface

Used output format : User Defined Encoder
Selected bitrate : 768 kBit/s
Quality : High
Add ID3 tag : No
Command line compressor : C:\Program Files\Exact Audio Copy\FLAC\FLAC.EXE
Additional command line options : -6 -V -T "ARTIST=%a" -T "TITLE=%t" -T "ALBUM=%g" -T "DATE=%y" -T "TRACKNUMBER=%n" -T "GENRE=%m" -T "COMMENT=%e" %s -o %d

TOC of the extracted CD

Track | Start | Length | Start sector | End sector
---------------------------------------------------------
1 | 0:00.00 | 3:16.50 | 0 | 14749
2 | 3:16.50 | 6:56.60 | 14750 | 46009
3 | 10:13.35 | 5:29.00 | 46010 | 70684
4 | 15:42.35 | 8:26.00 | 70685 | 108634
5 | 24:08.35 | 8:05.00 | 108635 | 145009
6 | 32:13.35 | 9:52.57 | 145010 | 189466
7 | 42:06.17 | 4:34.15 | 189467 | 210031

Range status and errors

Selected range

Filename E:\Rusich - In The Savage Battles.wav

Peak level 100.0 %
Range quality 100.0 %
Test CRC B3FEEAE7
Copy CRC B3FEEAE7
Copy OK

No errors occurred

AccurateRip summary

Track 1 not present in database
Track 2 not present in database
Track 3 not present in database
Track 4 not present in database
Track 5 not present in database
Track 6 not present in database
Track 7 not present in database

None of the tracks are present in the AccurateRip database

End of status report
(.CUE):
REM GENRE "Pagan Metal"
REM DISCID 5E0AF007
REM COMMENT "ExactAudioCopy v0.99pb4"
PERFORMER "Rusich"
TITLE "In The Savage Battles"
FILE "Rusich - In The Savage Battles.flac" WAVE
TRACK 01 AUDIO
TITLE "Intro"
PERFORMER "Rusich"
INDEX 01 00:00:00
TRACK 02 AUDIO
TITLE "One More Lie"
PERFORMER "Rusich"
INDEX 01 03:16:50
TRACK 03 AUDIO
TITLE "The Runes Are Inscribed - So We Believe It"
PERFORMER "Rusich"
INDEX 01 10:13:35
TRACK 04 AUDIO
TITLE "Dark Sky Above The Earth"
PERFORMER "Rusich"
INDEX 01 15:42:35
TRACK 05 AUDIO
TITLE "In The Savage Battles"
PERFORMER "Rusich"
INDEX 01 24:08:35
TRACK 06 AUDIO
TITLE "Ancient Will"
PERFORMER "Rusich"
INDEX 01 32:13:35
TRACK 07 AUDIO
TITLE "Following In The Tracks Of Gods"
PERFORMER "Rusich"
INDEX 01 42:06:17


Якщо Ви справді бажаєте підтримати українське - після прослуховування, якщо музика вам сподобалась, придбайте ліцензійний диск. Підтримаймо вітчизняних виконавців!


Срібний реліз (на рейтинг впливає 50% завантаженого)
 Трекер:    Зареєстрований   

Завантажити / скачати українську музику



відео для новачків



 Зареєстрований:   2015-06-28 18:45
 Розмір:   291 MB 
 Оцінка музики:   6.4/10 (Голосів: 5)
   
Lev 
VIP


З нами з: 14.10.09
Востаннє: 28.11.16
Повідомлень: 1819

2015-08-12 12:23  
Прекрасний, ідейний проект, маю честь бути знайомим з автором.
Ваш часовий пояс: GMT + 2 Години

Нова тема   Відповісти