Завантажити та скачати торренти українською


Маленькі негідники / The Little Rascals (1994) Ukr/Eng | Sub Eng

Нові коментарі

Нова тема   Відповісти
Автор Повідомлення
Anonymous 







2015-06-27 22:05  
Маленькі негідники / The Little Rascals (1994) Ukr/Eng | Sub Eng



Жанр: комедія, сімейний, мелодрама
Країна: США



Кінокомпанія: Universal Pictures, King World Entertainment, Amblin Entertainment
Режисер: Пенелопа Сфіріс / Penelope Spheeris
Актори: Тревіс Тедфорд / Travis Tedford, Кевін Джамал Вудс / Kevin Jamal Woods, Джордан Воркол / Jordan Warkol, Закарі Мебрі / Zachary Mabry, Росс Беґлі / Ross Bagley, Кортленд Мід / Courtland Mead, Сем Салетта / Sam Saletta, Блейк Джеремі Коллінз / Blake Jeremy Collins, Блейк МакАйвер Юінг / Blake McIver Ewing, Джульєтта Брюер / Juliette Brewer, Баґ Хoлл / Bug Hall, Бріттані Ештон Холмс / Brittany Ashton Holmes, Мел Брукс / Mel Brooks, Вупі Ґолдберґ / Whoopi Goldberg, Деріл Ханна / Daryl Hannah та інші

Сюжет:
Хлопчики організували свій клуб справжніх чоловіків-жінконенависників. Тому кожен, хто зустрічається з дівчинкою для них - злочинець, зрадник і негідник. Вони дуже суворо обійшлися з одним членом свого клубу тільки тому, що той ходив до дівчинки на побачення. Дівчата, у свою чергу, нічого хорошого в хлопчиках теж знайти не можуть і віддають їх суворому засудженню. Це забавна комедія, в якій є над чим посміятися.


Рейтинг MPAA: PG - рекомендується присутність батьків
Вікова категорія: 0+

Тривалість: 01:22:27
Якість:
Відео:
кодек: build 65
розмір кадру: 704x384
бітрейт: 1997 кбіт/с

Аудіо # 1:
мова: українська
переклад: багатоголосий закадровий
кодек: 5.0
бітрейт: 320 кбіт/с
примітка: доріжка отримана шляхом накладання чистих голосів на центральний канал оригінальної доріжки
ролі озвучили: Олесь Гімбаржевський, Лідія Муращенко і Ніна Касторф

Аудіо # 2:
мова: англійська
переклад: оригінал
кодек: 5.0
бітрейт: 320 кбіт/с

Субтитри:
мова: англійська (завантажити: повні, SDH)
тип: програмні (м'які)
формат: *.srt
MediaInfo
Код:
General
Complete name               : The Little Rascals (1994) [Ukr,Eng sub.Eng] [Hurtom & HQClub].avi
Format                      : AVI
Format/Info                 : Audio Video Interleave
File size                   : 1.53 GiB
Duration                    : 1h 22mn
Overall bit rate            : 2 651 Kbps
Movie name                  : Маленькі негідники / The Little Rascals (1994)
Director                    : igor911& yaroslaigor
Genre                       : мелодрама, комедія, сімейний
Writing application         : VirtualDubModRus 1.5.10.2 (build 2540/release)
Copyright                   : Hurtom & HQClub
Comment                     : 27.06.2015

Video
ID                          : 0
Format                      : MPEG-4 Visual
Format profile              : Advanced [email protected]
Format settings, BVOP       : 1
Format settings, QPel       : No
Format settings, GMC        : No warppoints
Format settings, Matrix     : Custom
Codec ID                    :
Codec ID/Hint               :
Duration                    : 1h 22mn
Bit rate                    : 1 997 Kbps
Width                       : 704 pixels
Height                      : 384 pixels
Display aspect ratio        : 1.85:1
Frame rate                  : 23.976 fps
Color space                 : YUV
Chroma subsampling          : 4:2:0
Bit depth                   : 8 bits
Scan type                   : Progressive
Compression mode            : Lossy
Bits/(Pixel*Frame)          : 0.308
Stream size                 : 1.15 GiB (75%)
Writing library             : 65

Audio #1
ID                          : 1
Format                      : AC-3
Format/Info                 : Audio Coding 3
Mode extension              : CM (complete main)
Format settings, Endianness : Big
Codec ID                    : 2000
Duration                    : 1h 22mn
Bit rate mode               : Constant
Bit rate                    : 320 Kbps
Channel(s)                  : 6 channels
Channel(s)_Original         : 5 channels
Channel positions           : Front: L C R, Side: L R
Sampling rate               : 48.0 KHz
Compression mode            : Lossy
Stream size                 : 189 MiB (12%)
Alignment                   : Split accross interleaves
Interleave, duration        : 42 ms (1.00 video frame)
Interleave, preload duratio : 500 ms
Title                       : MVO [Novyj]

Audio #2
ID                          : 2
Format                      : AC-3
Format/Info                 : Audio Coding 3
Mode extension              : CM (complete main)
Format settings, Endianness : Big
Codec ID                    : 2000
Duration                    : 1h 22mn
Bit rate mode               : Constant
Bit rate                    : 320 Kbps
Channel(s)                  : 6 channels
Channel(s)_Original         : 5 channels
Channel positions           : Front: L C R, Side: L R
Sampling rate               : 48.0 KHz
Compression mode            : Lossy
Stream size                 : 189 MiB (12%)
Alignment                   : Split accross interleaves
Interleave, duration        : 42 ms (1.00 video frame)
Interleave, preload duratio : 500 ms
Title                       : Original




Джерела та подяки: & &


ЗАЛИШАЙТЕСЬ ЯКОМОГА ДОВШЕ НА РОЗДАЧІ!

СКАЧАВ САМ - ДАЙ СКАЧАТИ ІНШИМ


Срібний реліз (на рейтинг впливає 50% завантаженого)
 Трекер:    Зареєстрований   

Завантажити / скачати фільм українською



відео для новачків



 Зареєстрований:   2015-06-27 22:05
 Розмір:   1.53 GB 
 Оцінка фільму:   3.8/10 (Голосів: 16)
   
Інші релізи
Hentaihunter 
VIP


З нами з: 16.08.08
Востаннє: 02.12.16
Повідомлень: 2147

2015-06-28 08:31  
igor911 написано:
кодек: 5.0

Куди зник ще один канал?

Anonymous 







2015-06-28 08:50  
Hentaihunter написано:
Куди зник ще один канал?

Його ніколи й не було в оригіналі http://www.blu-ray.com/movies/The-Little-Rascals-Blu-ray/101749/ і на ДВД теж.

VINRARUS 
Свій


З нами з: 16.11.11
Востаннє: 30.11.16
Повідомлень: 121

2015-06-29 18:15  
Та це ж легендарний фільм!
Дуже крутий сюжет, та ще й кілька сюжетних ліній.

Ваш часовий пояс: GMT + 2 Години

Нова тема   Відповісти