Завантажити та скачати торренти українською


Aeternus Prophet - Безжальність (2012) [FLAC] | Death/Black Metal

Нові коментарі

Нова тема   Відповісти
Автор Повідомлення
kolpavel 
VIP


З нами з: 04.05.14
Востаннє: 11.12.16
Повідомлень: 1062

2015-06-26 16:50  
Aeternus Prophet - Безжальність (2012) [FLAC] | Death/Black Metal

Aeternus Prophet - Безжальність (2012) [FLAC] | Death/Black Metal


Стиль: Death Black Metal
Країна, місто: Україна, Фастів (Київська обл.)
Сайти: Офіційний сайт
Видавець: Rostok Records
Виконавці:
Veritas Prophet — вокал, гітара, бас-гітара
Oberon Prophet — гітара
Dessident Prophet — барабани
Пісні:
    01. Intro
    02. Шлях
    03. Безжальність
    04. Мільйони безіменних могил
    05. Посохле коріння
    06. Плющем сповиті сновидіння
    07. Наша кров та повітря
    08. Небажана присутність
    09. Духовно мертві
    10. Outro
    11. Sport Anthem (бонус-трек)

Тривалість: 00:36:28
Мова: instrumental (1,10), українська (2-9), англійська (11)
Аудіо-кодек: FLAC
Бітрейт: 957 кб/с
Джерело: Інтернет
Додаткова інформація:
Лог:
Exact Audio Copy V1.0 beta 6 from 9. April 2015

Отчёт EAC об извлечении, выполненном 25. июня 2015, 13:15

Aeternus Prophet / Безжальність

Дисковод: HL-DT-STDVDRAM GH24NS90 Adapter: 1 ID: 0

Режим чтения : Достоверность
Использование точного потока : Да
Отключение кэша аудио : Да
Использование указателей C2 : Нет

Коррекция смещения при чтении : 0
Способность читать области Lead-in и Lead-out : Нет
Заполнение пропущенных сэмплов тишиной : Да
Удаление блоков с тишиной в начале и конце : Нет
При вычислениях CRC использовались нулевые сэмплы : Да
Интерфейс : Встроенный Win32-интерфейс для Win NT/2000

Выходной формат : Пользовательский кодировщик
Выбранный битрейт : 1024 kBit/s
Качество : Высокий
Добавление ID3-тега : Да
Утилита сжатия : C:\Program Files\Exact Audio Copy\Flac\flac.exe
Дополнительные параметры : -V -8 -T "Date=%year%" -T "Genre=%genre%" %source%

TOC извлечённого CD

Трек | Старт | Длительность | Начальный сектор | Конечный сектор
---------------------------------------------------------------------
1 | 0:00.00 | 1:48.39 | 0 | 8138
2 | 1:48.39 | 2:52.13 | 8139 | 21051
3 | 4:40.52 | 3:47.00 | 21052 | 38076
4 | 8:27.52 | 4:07.40 | 38077 | 56641
5 | 12:35.17 | 2:52.59 | 56642 | 69600
6 | 15:28.01 | 3:44.55 | 69601 | 86455
7 | 19:12.56 | 3:57.61 | 86456 | 104291
8 | 23:10.42 | 3:01.05 | 104292 | 117871
9 | 26:11.47 | 4:32.11 | 117872 | 138282
10 | 30:43.58 | 2:30.41 | 138283 | 149573
11 | 33:14.24 | 3:13.33 | 149574 | 164081

Характеристики диапазона извлечения и сообщения об ошибках

Выбранный диапазон

Имя файла D:\Рабочий стол\Aeternus Prophet - Безжальність.wav

Пиковый уровень 98.4 %
Скорость извлечения 1.5 X
Качество диапазона 100.0 %
CRC теста 09D04C17
CRC копии 09D04C17
Копирование... OK

Ошибок не произошло

Конец отчёта

==== Контрольная сумма отчёта E772991EF99EF614881699DF64C0D4869E93390AAA5A0D2D9A1DEAA4301A282D ====
(.CUE):
REM GENRE "Black Metal/Death Metal"
REM DATE 2012
REM DISCID 92088B0B
REM COMMENT "ExactAudioCopy v1.0b6"
PERFORMER "Aeternus Prophet"
TITLE "Безжальність"
FILE "Aeternus Prophet - Безжальність.Flac" WAVE
TRACK 01 AUDIO
TITLE "Intro"
PERFORMER "Aeternus Prophet"
INDEX 01 00:00:00
TRACK 02 AUDIO
TITLE "Шлях"
PERFORMER "Aeternus Prophet"
INDEX 00 01:46:39
INDEX 01 01:48:39
TRACK 03 AUDIO
TITLE "Безжальність"
PERFORMER "Aeternus Prophet"
INDEX 00 04:38:52
INDEX 01 04:40:52
TRACK 04 AUDIO
TITLE "Мільйони Безіменних Могил"
PERFORMER "Aeternus Prophet"
INDEX 00 08:25:52
INDEX 01 08:27:52
TRACK 05 AUDIO
TITLE "Посохле Коріння"
PERFORMER "Aeternus Prophet"
INDEX 00 12:33:17
INDEX 01 12:35:17
TRACK 06 AUDIO
TITLE "Плющем Сповиті Сновидіння"
PERFORMER "Aeternus Prophet"
INDEX 00 15:26:01
INDEX 01 15:28:01
TRACK 07 AUDIO
TITLE "Наша Кров Та Повітря"
PERFORMER "Aeternus Prophet"
INDEX 00 19:10:56
INDEX 01 19:12:56
TRACK 08 AUDIO
TITLE "Небажана Присутність"
PERFORMER "Aeternus Prophet"
INDEX 00 23:08:42
INDEX 01 23:10:42
TRACK 09 AUDIO
TITLE "Духовно Мертві"
PERFORMER "Aeternus Prophet"
INDEX 00 26:09:47
INDEX 01 26:11:47
TRACK 10 AUDIO
TITLE "Outro"
PERFORMER "Aeternus Prophet"
INDEX 00 30:41:58
INDEX 01 30:43:58
TRACK 11 AUDIO
TITLE "Sport Anthem"
PERFORMER "Aeternus Prophet"
INDEX 00 33:12:31
INDEX 01 33:14:24


Якщо Ви справді бажаєте підтримати українське - після прослуховування, якщо музика вам сподобалась, придбайте ліцензійний диск. Підтримаймо вітчизняних виконавців!


Срібний реліз (на рейтинг впливає 50% завантаженого)
 Трекер:    Зареєстрований   

Завантажити / скачати українську музику



відео для новачків



 Зареєстрований:   2015-06-26 16:50
 Розмір:   250 MB 
 Оцінка музики:   10/10 (Голосів: 2)
   
kolpavel 
VIP


З нами з: 04.05.14
Востаннє: 11.12.16
Повідомлень: 1062

2015-06-26 21:34  
Oleksa9 
Поважний учасник


З нами з: 17.05.12
Востаннє: 11.12.16
Повідомлень: 225

2015-06-28 12:49  
Й де тут чорний метал? Death, Core, Groove...
Ваш часовий пояс: GMT + 2 Години

Нова тема   Відповісти