Завантажити та скачати торренти українською


Недитяче кіно / Not Another Teen Movie (2001) 1080p 2xUkr/Eng | Sub Eng

Нові коментарі

Нова тема   Відповісти
Автор Повідомлення
Anonymous 







2015-06-26 14:00  
Недитяче кіно / Not Another Teen Movie (2001) 1080p 2xUkr/Eng | Sub Eng



Оригінальний постер


повнорозмірне зображення відкриється по кліку (з натиснутим CTRL чи кліком середньою кнопкою мишки - у іншій вкладці)


Жанр: комедія
Країна: США



Кінокомпанія: Columbia Pictures Corporation, Original Film, Neal H. Moritz Productions
Режисер: Джоіл Галлен / Joel Gallen
Актори: Кайлер Лі / Chyler Leigh, Кріс Еванс / Chris Evans, Джеймі Преслі / Jaime Pressly, Ерік Крістіан Олсен / Eric Christian Olsen, Міа Кіршнер / Mia Kirshner, Діон Річмонд / Deon Richmond, Ерік Джангманн / Eric Jungmann та інші

Сюжет:
Популярний у школі хлопець, зірка футбольної команди Джейк Вайлер, засліплений власною славою й успіхом, укладає парі зі своїми друзями.

Вайлер робить ставку на те, що може зробити з будь-якої дівчини школи королеву шкільного балу. Друзі відразу ж вибирають предмет свого жарту - зовні непривабливу художницю-любительку Джені Брігс, чий комбінезон завжди в фарбі, яка носить окуляри та збирає своє волосся у "хвіст". Джені є ізгоєм у своєму класі, проте пройшовши через низку подій, Вайлер розуміє, що закоханий у неї по вуха...


Рейтинг MPAA: R - особам до 17 років обов'язкова присутність батьків або дорослого опікуна
Вікова категорія: 16+

Тривалість: 01:25:24
Якість: 1080p [Amazon Prime Instant Video]
Відео:
кодек:
розмір кадру: 1920 х 1080
бітрейт: 10000 кбіт/с

Аудіо # 1:
мова: українська
переклад: багатоголосий закадровий
кодек: 2.0
бітрейт: 192 кбіт/с

Аудіо # 2:
мова: українська
переклад: багатоголосий закадровий
кодек: 5.1
бітрейт: 384 кбіт/с

Аудіо # 3:
мова: англійська
переклад: оригінал
кодек: 5.1
бітрейт: 448 кбіт/с

Субтитри:
мова: англійська (SDH)
тип: програмні (м'які)
формат: *.srt
MediaInfo
Код:
General
Unique ID                   : 210191629615774576423525558865217458317 (0x9E216F73565786F5861BA9FABA14108D)
Complete name               : Not Another Teen Movie (2001) [2xUkr,Eng sub.Eng] 1080p [Hurtom & HDClub].mkv
Format                      : Matroska
Format version              : Version 4 / Version 2
File size                   : 6.49 GiB
Duration                    : 1h 25mn
Overall bit rate            : 10.9 Mbps
Movie name                  : Недитяче кіно / Not Another Teen Movie (2001) [2xUkr,Eng sub.Eng] 1080p [Hurtom & HDClub]
Encoded date                : UTC 2015-06-24 17:02:19
Writing application         : mkvmerge v8.0.0 ('Til The Day That I Die') 64bit
Writing library             : libebml v1.3.1 + libmatroska v1.4.2
Attachements                : cover.jpg
DURATION                    : 01:25:21.470000000
NUMBER_OF_FRAMES            : 1695
NUMBER_OF_BYTES             : 43167
_STATISTICS_WRITING_APP     : mkvmerge v8.0.0 ('Til The Day That I Die') 64bit
_STATISTICS_WRITING_DATE_UT : 2015-06-24 17:02:19
_STATISTICS_TAGS            : BPS DURATION NUMBER_OF_FRAMES NUMBER_OF_BYTES

Video
ID                          : 1
Format                      : AVC
Format/Info                 : Advanced Video Codec
Format profile              : [email protected]
Format settings, CABAC      : Yes
Format settings, ReFrames   : 4 frames
Format settings, GOP        : M=4, N=50
Codec ID                    : V_MPEG4/ISO/AVC
Duration                    : 1h 25mn
Bit rate mode               : Constant
Bit rate                    : 10 000 Kbps
Width                       : 1 920 pixels
Height                      : 1 080 pixels
Display aspect ratio        : 16:9
Frame rate mode             : Constant
Frame rate                  : 25.000 fps
Standard                    : PAL
Color space                 : YUV
Chroma subsampling          : 4:2:0
Bit depth                   : 8 bits
Scan type                   : Progressive
Bits/(Pixel*Frame)          : 0.193
Stream size                 : 5.75 GiB (89%)
Title                       : Недитяче кіно / Not Another Teen Movie / Недетское кино (2001) 1080p [Amazon Prime Instant Video]
Language                    : English
Default                     : Yes
Forced                      : No
Color range                 : Limited
Color primaries             : BT.709
Transfer characteristics    : BT.709
Matrix coefficients         : BT.709

Audio #1
ID                          : 2
Format                      : AC-3
Format/Info                 : Audio Coding 3
Mode extension              : CM (complete main)
Format settings, Endianness : Big
Codec ID                    : A_AC3
Duration                    : 1h 25mn
Bit rate mode               : Constant
Bit rate                    : 192 Kbps
Channel(s)                  : 2 channels
Channel positions           : Front: L R
Sampling rate               : 48.0 KHz
Compression mode            : Lossy
Stream size                 : 117 MiB (2%)
Title                       : MVO [Novyj] 2.0 192 kbps [Hurtom-Breniak]
Language                    : Ukrainian
Default                     : Yes
Forced                      : No

Audio #2
ID                          : 3
Format                      : AC-3
Format/Info                 : Audio Coding 3
Mode extension              : CM (complete main)
Format settings, Endianness : Big
Codec ID                    : A_AC3
Duration                    : 1h 25mn
Bit rate mode               : Constant
Bit rate                    : 384 Kbps
Channel(s)                  : 6 channels
Channel positions           : Front: L C R, Side: L R, LFE
Sampling rate               : 48.0 KHz
Compression mode            : Lossy
Stream size                 : 235 MiB (4%)
Title                       : MVO [K1] 5.1 384 kbps [Hurtom-LIONN]
Language                    : Ukrainian
Default                     : No
Forced                      : No

Audio #3
ID                          : 4
Format                      : AC-3
Format/Info                 : Audio Coding 3
Mode extension              : CM (complete main)
Format settings, Endianness : Big
Codec ID                    : A_AC3
Duration                    : 1h 25mn
Bit rate mode               : Constant
Bit rate                    : 448 Kbps
Channel(s)                  : 6 channels
Channel positions           : Front: L C R, Side: L R, LFE
Sampling rate               : 48.0 KHz
Compression mode            : Lossy
Stream size                 : 274 MiB (4%)
Title                       : Original 5.1 448 kbps
Language                    : English
Default                     : No
Forced                      : No

Text
ID                          : 5
Format                      : UTF-8
Codec ID                    : S_TEXT/UTF8
Codec ID/Info               : UTF-8 Plain Text
Title                       : SDH
Language                    : English
Default                     : No
Forced                      : No




Джерела та подяки: &
ріп відео, оригінальні звук та субтитри - marchelush (HDClub); українські доріжки - Breniak (1), LIONN (2) - зведення, xslim, SweetN - запис з ТБ; українізований постер - zgryvus (всі - Гуртом).

ЗАЛИШАЙТЕСЬ ЯКОМОГА ДОВШЕ НА РОЗДАЧІ!

СКАЧАВ САМ - ДАЙ СКАЧАТИ ІНШИМ


Срібний реліз (на рейтинг впливає 50% завантаженого)
 Трекер:    Зареєстрований   

Завантажити / скачати фільм українською



відео для новачків



 Зареєстрований:   2015-06-26 14:00
 Розмір:   6.49 GB 
 Оцінка фільму:   3.4/10 (Голосів: 17)
   
Інші релізи
   Недитяче кіно / Not Another Teen Movie (2001) 2xUkr/Eng Breniak  2 / 0   1.56 GB   2012-02-20 22:42 
   Недитяче кіно / Not Another Teen Movie (2001) LIONN  0 / 1   1.37 GB   2010-03-22 16:47 
Ваш часовий пояс: GMT + 2 Години

Нова тема   Відповісти