Завантажити та скачати торренти українською


Маленькі негідники / The Little Rascals (1994) 720p Ukr/Eng | Sub Eng

Нові коментарі

Нова тема   Відповісти
Автор Повідомлення
Anonymous 







2015-06-23 21:51  
Маленькі негідники / The Little Rascals (1994) 720p Ukr/Eng | Sub Eng



Жанр: комедія, сімейний, мелодрама
Країна: США



Кінокомпанія: Universal Pictures, King World Entertainment, Amblin Entertainment
Режисер: Пенелопа Сфіріс / Penelope Spheeris
Актори: Тревіс Тедфорд / Travis Tedford, Кевін Джамал Вудс / Kevin Jamal Woods, Джордан Воркол / Jordan Warkol, Закарі Мебрі / Zachary Mabry, Росс Беґлі / Ross Bagley, Кортленд Мід / Courtland Mead, Сем Салетта / Sam Saletta, Блейк Джеремі Коллінз / Blake Jeremy Collins, Блейк МакАйвер Юінг / Blake McIver Ewing, Джульєтта Брюер / Juliette Brewer, Баґ Хoлл / Bug Hall, Бріттані Ештон Холмс / Brittany Ashton Holmes, Мел Брукс / Mel Brooks, Вупі Ґолдберґ / Whoopi Goldberg, Деріл Ханна / Daryl Hannah та інші

Сюжет:
Хлопчики організували свій клуб справжніх чоловіків-жінконенависників. Тому кожен, хто зустрічається з дівчинкою для них - злочинець, зрадник і негідник. Вони дуже суворо обійшлися з одним членом свого клубу тільки тому, що той ходив до дівчинки на побачення. Дівчата, у свою чергу, нічого хорошого в хлопчиках теж знайти не можуть і віддають їх суворому засудженню. Це забавна комедія, в якій є над чим посміятися.


Рейтинг MPAA: PG - рекомендується присутність батьків
Вікова категорія: 0+

Тривалість: 01:22:27
Якість: 720p [CtrlHD]
Відео:
кодек:
розмір кадру: 1280 х 694
бітрейт: 11400 кбіт/с [crf=18]

Аудіо # 1:
мова: українська
переклад: багатоголосий закадровий
кодек: 5.0
бітрейт: 1509 кбіт/с
примітка: доріжка отримана шляхом накладання чистих голосів на центральний канал оригінальної доріжки
ролі озвучили: Олесь Гімбаржевський, Лідія Муращенко і Ніна Касторф

Аудіо # 2:
мова: англійська
переклад: оригінал
кодек: 5.0
бітрейт: 1509 кбіт/с

Субтитри:
мова: англійська (повні, SDH)
тип: програмні (м'які)
формат: *.srt

Збережено оригінальні розділи, як на Blu-ray.
MediaInfo
Код:
General
Unique ID                   : 201754584831915587652745754354738098470 (0x97C88506C495B8CC8CAFBA57C26D7126)
Complete name               : The Little Rascals (1994) [Ukr,Eng sub.Eng] 720p [Hurtom & HDClub].mkv
Format                      : Matroska
Format version              : Version 4 / Version 2
File size                   : 8.46 GiB
Duration                    : 1h 22mn
Overall bit rate            : 14.7 Mbps
Movie name                  : Маленькі негідники / The Little Rascals (1994) [Ukr,Eng sub.Eng] 720p [Hurtom & HDClub]
Encoded date                : UTC 2015-06-23 14:41:11
Writing application         : mkvmerge v8.0.0 ('Til The Day That I Die') 64bit
Writing library             : libebml v1.3.1 + libmatroska v1.4.2
Attachements                : cover.jpg
DURATION                    : 01:19:13.249000000
NUMBER_OF_FRAMES            : 1139
NUMBER_OF_BYTES             : 33676
_STATISTICS_WRITING_APP     : mkvmerge v8.0.0 ('Til The Day That I Die') 64bit
_STATISTICS_WRITING_DATE_UT : 2015-06-23 14:41:11
_STATISTICS_TAGS            : BPS DURATION NUMBER_OF_FRAMES NUMBER_OF_BYTES

Video
ID                          : 1
Format                      : AVC
Format/Info                 : Advanced Video Codec
Format profile              : [email protected]
Format settings, CABAC      : Yes
Format settings, ReFrames   : 9 frames
Codec ID                    : V_MPEG4/ISO/AVC
Duration                    : 1h 22mn
Bit rate                    : 11.4 Mbps
Width                       : 1 280 pixels
Height                      : 694 pixels
Display aspect ratio        : 1.85:1
Frame rate mode             : Constant
Frame rate                  : 23.976 fps
Color space                 : YUV
Chroma subsampling          : 4:2:0
Bit depth                   : 8 bits
Scan type                   : Progressive
Bits/(Pixel*Frame)          : 0.534
Stream size                 : 6.55 GiB (77%)
Title                       : Маленькі негідники / The Little Rascals / Маленькие негодяи (1994) 720p [CtrlHD]
Writing library             : core 142 r2479kMod dd79a61
Encoding settings           : cabac=1 / ref=9 / deblock=1:-3:-3 / analyse=0x3:0x133 / me=umh / subme=10 / psy=1 / fade_compensate=0.00 / psy_rd=1.10:0.00 / mixed_ref=1 / me_range=16 / chroma_me=1 / trellis=2 / 8x8dct=1 / cqm=0 / deadzone=21,11 / fast_pskip=0 / chroma_qp_offset=-2 / threads=6 / lookahead_threads=1 / sliced_threads=0 / nr=0 / decimate=0 / interlaced=0 / bluray_compat=0 / constrained_intra=0 / fgo=0 / bframes=8 / b_pyramid=2 / b_adapt=2 / b_bias=0 / direct=3 / weightb=1 / open_gop=0 / weightp=2 / keyint=250 / keyint_min=23 / scenecut=40 / intra_refresh=0 / rc_lookahead=60 / rc=crf / mbtree=0 / crf=18.0000 / qcomp=0.70 / qpmin=0 / qpmax=69 / qpstep=4 / vbv_maxrate=50000 / vbv_bufsize=62500 / crf_max=0.0 / nal_hrd=none / filler=0 / ip_ratio=1.30 / pb_ratio=1.20 / aq=1:0.60
Language                    : English
Default                     : Yes
Forced                      : No
DURATION                    : 01:22:27.902000000
NUMBER_OF_FRAMES            : 118631
NUMBER_OF_BYTES             : 7214802509
_STATISTICS_WRITING_APP     : mkvmerge v8.0.0 ('Til The Day That I Die') 64bit
_STATISTICS_WRITING_DATE_UT : 2015-06-23 14:41:11
_STATISTICS_TAGS            : BPS DURATION NUMBER_OF_FRAMES NUMBER_OF_BYTES

Audio #1
ID                          : 2
Format                      :
Format/Info                 : Digital Theater Systems
Mode                        : 16
Format settings, Endianness : Big
Codec ID                    : A_DTS
Duration                    : 1h 22mn
Bit rate mode               : Constant
Bit rate                    : 1 509 Kbps
Channel(s)                  : 5 channels
Channel positions           : Front: L C R, Side: L R
Sampling rate               : 48.0 KHz
Bit depth                   : 24 bits
Compression mode            : Lossy
Stream size                 : 890 MiB (10%)
Title                       : MVO [Novyj] 5.0 1509 kbps [HDClub]
Language                    : Ukrainian
Default                     : Yes
Forced                      : No

Audio #2
ID                          : 3
Format                      :
Format/Info                 : Digital Theater Systems
Mode                        : 16
Format settings, Endianness : Big
Codec ID                    : A_DTS
Duration                    : 1h 22mn
Bit rate mode               : Constant
Bit rate                    : 1 509 Kbps
Channel(s)                  : 5 channels
Channel positions           : Front: L C R, Side: L R
Sampling rate               : 48.0 KHz
Bit depth                   : 24 bits
Compression mode            : Lossy
Stream size                 : 890 MiB (10%)
Title                       : Original 5.0 1509 kbps
Language                    : English
Default                     : No
Forced                      : No

Text #1
ID                          : 4
Format                      : UTF-8
Codec ID                    : S_TEXT/UTF8
Codec ID/Info               : UTF-8 Plain Text
Language                    : English
Default                     : No
Forced                      : No

Text #2
ID                          : 5
Format                      : UTF-8
Codec ID                    : S_TEXT/UTF8
Codec ID/Info               : UTF-8 Plain Text
Title                       : SDH
Language                    : English
Default                     : No
Forced                      : No

Menu
00:00:00.000                : en:Main Titles: An Emergency Meeting
00:04:38.695                : en:The He-man Womun Haters Club
00:08:00.522                : en:The Great Lover
00:11:11.546                : en:The Bullies, The Beast And The Boyfriend
00:12:43.137                : en:The Rich Kid
00:14:25.406                : en:Messing Up The Mid-day Meal
00:18:04.750                : en:Cornered At The Clubhouse
00:19:15.654                : en:Fire!
00:21:43.260                : en:Burned and Spurned
00:24:28.801                : en:Alfalfa On The Edge
00:26:30.339                : en:Boy's And Girl's
00:28:05.601                : en:A Big Number For A Little Number
00:29:01.198                : en:The loan Arrangers
00:30:55.145                : en:A Love Note To Darla
00:34:28.400                : en:A Buck And A Duck
00:35:54.027                : en:The Bullies And The Ballerinas
00:39:09.097                : en:Toads Among The Tutus
00:41:21.020                : en:Out There In His Underwear
00:43:33.694                : en:The Outer Side Of Alfalfa
00:44:21.951                : en:A Pickel For A Nickel
00:45:04.869                : en:Believe It Or Else!
00:46:59.191                : en:Skunked!
00:48:19.271                : en:All That Money...
00:49:42.146                : en:"l-o-v-e" (waldo And Darla)
00:51:10.526                : en:Butch Takes The Blur
00:52:32.191                : en:Subgug Through Suds
00:54:27.306                : en:The Ex-woman Hater
00:55:33.121                : en:Making Up
00:58:04.773                : en:Working Together
00:59:01.872                : en:Building A Better Hut
01:00:45.141                : en:The Go-cart Derby
01:04:20.482                : en:Start Your Engines
01:06:02.041                : en:No Sense Of Direction
01:07:05.772                : en:Rascals At Warp Speed
01:08:07.125                : en:Yikes! Spikes!
01:09:04.265                : en:Things Flare up
01:10:08.246                : en:Winner By A Hair
01:11:12.059                : en:The Lover Becomes A Fighter
01:12:59.292                : en:The Winners!
01:14:11.906                : en:Things Have To Change Sometime
01:16:28.959                : en:The Cast Of Characters
01:18:44.094                : en:End Titles
Оригінал <----------> Ріп











Джерела та подяки: &


ЗАЛИШАЙТЕСЬ ЯКОМОГА ДОВШЕ НА РОЗДАЧІ!

СКАЧАВ САМ - ДАЙ СКАЧАТИ ІНШИМ


Срібний реліз (на рейтинг впливає 50% завантаженого)
 Трекер:    Зареєстрований   

Завантажити / скачати фільм українською



відео для новачків



 Зареєстрований:   2015-06-23 21:51
 Розмір:   8.46 GB 
 Оцінка фільму:   3.6/10 (Голосів: 15)
   
Інші релізи
Ваш часовий пояс: GMT + 2 Години

Нова тема   Відповісти