Завантажити та скачати торренти українською


Гонщик / Driven (2001) Ukr/Eng | Sub Eng

Нові коментарі

Нова тема   Відповісти
Автор Повідомлення
Anonymous 







2015-06-22 12:48  
Гонщик / Driven (2001) Ukr/Eng | Sub Eng



Оригінальний постер



Жанр: драма, спорт, бойовик
Країна: США, Канада, Австралія



Кінокомпанія: Franchise Pictures, Epsilon Motion Pictures, Trackform Film Productions, Champs Productions
Режисер: Ренні Харлін / Renny Harlin
Актори: Сильвестер Сталлоне / Sylvester Stallone, Берт Рейнольдс / Burt Reynolds, Кіп Пардью / Kip Pardue, Стейсі Едвардс / Stacy Edwards, Тіль Швайгер / Til Schweiger, Джина Гершон / Gina Gershon та інші

Сюжет:
Надзвичайно талановитий, але ще дуже молодий гонщик Джиммі Блай раптово починає втрачати "хист". Блай - зірка, яка сходить і бос його команди чітко розуміє, що терміново необхідний "досвідчений" фахівець-наставник, який не дасть кар'єрі Джиммі зійти нанівець. Цим фахівцем стає Джо Тенті – найбільш досвідчений гонщик і екс-чемпіон. Колись Тенті змушений був покинути світ гонок через нещасний випадок. Але тепер у Джо є унікальний шанс не тільки зробити юного Блая новим королем гонщиків, але й довести всім, на що ще здатний він сам.


Рейтинг MPAA: PG-13 - дітям до 13 років перегляд не бажаний
Вікова категорія: 12+

Тривалість: 01:56:49
Якість:
Відео:
кодек: build 65
розмір кадру: 720x304
бітрейт: 1772 кбіт/с

Аудіо # 1:
мова: українська
переклад: багатоголосий закадровий - Так Треба Продакшн
ролі озвучили: Сильвестер Сталлоне - Олег Стальчук, Берт Рейнольдс - Володимир Терещук, Дмитро Терещук і один жіночий голос
кодек: 2.0
бітрейт: 192 кбіт/с

Аудіо # 2:
мова: англійська
переклад: оригінал
кодек: 5.1
бітрейт: 448 кбіт/с

Субтитри: (завантажити)
мова: англійська (SDH)
тип: програмні (м'які)
формат: *.srt
MediaInfo
Код:
General
Complete name               : Driven (2001) [Ukr,Eng] [Hurtom & HQClub].avi
Format                      : AVI
Format/Info                 : Audio Video Interleave
File size                   : 1.97 GiB
Duration                    : 1h 56mn
Overall bit rate            : 2 415 Kbps
Movie name                  : Гонщик / Driven (2001)
Director                    : igor911& sociolog_melvas
Genre                       : драма, спорт, бойовик
Writing application         : VirtualDubModRus 1.5.10.2 (build 2540/release)
Original source form/Name   : Movie
Copyright                   : Hurtom & HQClub
Comment                     : 22.06.2015

Video
ID                          : 0
Format                      : MPEG-4 Visual
Format profile              : Advanced [email protected]
Format settings, BVOP       : 1
Format settings, QPel       : No
Format settings, GMC        : No warppoints
Format settings, Matrix     : Custom
Codec ID                    :
Codec ID/Hint               :
Duration                    : 1h 56mn
Bit rate                    : 1 761 Kbps
Width                       : 720 pixels
Height                      : 304 pixels
Display aspect ratio        : 2.35:1
Frame rate                  : 23.976 fps
Color space                 : YUV
Chroma subsampling          : 4:2:0
Bit depth                   : 8 bits
Scan type                   : Progressive
Compression mode            : Lossy
Bits/(Pixel*Frame)          : 0.336
Stream size                 : 1.44 GiB (73%)
Writing library             : 65

Audio #1
ID                          : 1
Format                      : AC-3
Format/Info                 : Audio Coding 3
Mode extension              : CM (complete main)
Format settings, Endianness : Big
Codec ID                    : 2000
Duration                    : 1h 56mn
Bit rate mode               : Constant
Bit rate                    : 192 Kbps
Channel(s)                  : 2 channels
Channel positions           : Front: L R
Sampling rate               : 48.0 KHz
Compression mode            : Lossy
Stream size                 : 160 MiB (8%)
Alignment                   : Split accross interleaves
Interleave, duration        : 42 ms (1.00 video frame)
Interleave, preload duratio : 500 ms

Audio #2
ID                          : 2
Format                      : AC-3
Format/Info                 : Audio Coding 3
Mode extension              : CM (complete main)
Format settings, Endianness : Big
Codec ID                    : 2000
Duration                    : 1h 56mn
Bit rate mode               : Constant
Bit rate                    : 448 Kbps
Channel(s)                  : 6 channels
Channel positions           : Front: L C R, Side: L R, LFE
Sampling rate               : 48.0 KHz
Compression mode            : Lossy
Stream size                 : 374 MiB (19%)
Alignment                   : Split accross interleaves
Interleave, duration        : 42 ms (1.00 video frame)
Interleave, preload duratio : 500 ms




Джерела та подяки: &
ріп відео, оригінальні звук та субтитри - sociolog_melvas (HQClub); українська доріжка - _oles - зведення, Romario_O, drakon87 - запис з ТБ; українізований постер - thefir; фільмографії акторів та інформація про озвучення - Віктор (всі - Гуртом).


ЗАЛИШАЙТЕСЬ ЯКОМОГА ДОВШЕ НА РОЗДАЧІ!

СКАЧАВ САМ - ДАЙ СКАЧАТИ ІНШИМ


Срібний реліз (на рейтинг впливає 50% завантаженого)
 Трекер:    Зареєстрований   

Завантажити / скачати фільм українською



відео для новачків



 Зареєстрований:   2015-06-22 12:48
 Розмір:   1.97 GB 
 Оцінка фільму:   4.6/10 (Голосів: 21)
   
Інші релізи
   Гонщик / Driven (2001) 720p Ukr/Eng | Sub Eng igor911  3 / 0   8.32 GB   2014-10-26 14:51 
boroznaya 
VIP


З нами з: 02.11.12
Востаннє: 08.12.16
Повідомлень: 1876

2015-12-18 10:26  
Рейтинг фільму дуже занижений, а даремно... Гра варта свічок!
EvGaS 
Відео Гуртом - підтримка та поширення
Відео Гуртом - підтримка та поширення


З нами з: 27.02.12
Востаннє: 08.12.16
Повідомлень: 2137

2015-12-18 13:20  
boroznaya написано:
Гра варта свічок!

Якщо їх перед стартом не викрутили. Тоді одразу фініш. )))

Додано через 1 хвилину 32 секунди:

Не дуже популярне, але кіномани знають що воно є. В декого навіть на поличках.

boroznaya 
VIP


З нами з: 02.11.12
Востаннє: 08.12.16
Повідомлень: 1876

2015-12-18 13:52  
EvGaS написано:
Не дуже популярне

Я ж не кажу, що це кращий у своєму жанрі фільм, але уваги він безперечно вартий. Люблю швидкість, драйв, і все, що з цим пов'язано.

Arsenfpu 
Відео Гуртом - фільмокрай
Відео Гуртом - фільмокрай


З нами з: 30.04.09
Востаннє: 08.12.16
Повідомлень: 1590

2016-05-13 00:31  
Новий канал показував у цій же ж озвучці.
Ваш часовий пояс: GMT + 2 Години

Нова тема   Відповісти