Завантажити та скачати торренти українською


Оптом дешевше 2 / Cheaper by the Dozen 2 (2005) 720p Ukr/Eng

Нові коментарі

Нова тема   Відповісти
Автор Повідомлення
Anonymous 







2015-06-20 01:48  
Оптом дешевше 2 / Cheaper by the Dozen 2 (2005) 720p Ukr/Eng



Жанр: комедія, пригодницький, сімейний
Країна: США, Канада



Кінокомпанія: Twentieth Century Fox Film Corporation, 21 Laps Entertainment, Dozen Canada Productions
Режисер: Адам Шенкман / Adam Shankman
Актори: Стів Мартін / Steve Martin, Юджин Леві, Бонні Хант, Том Веллінг, Пайпер Перабо, Кармен Електра, Джеймі Кінг, Гіларі Даф / Hilary Duff, Тейлор Лотнер, Елісон Стоунер та інші

Сюжет:
У відчайдушній спробі знову зібрати сім'ю разом, Том Бейкер орендує будиночок на озері, в якому пройшов найкращий в його розумінні вікенд. Але тільки інші домочадці зовсім не раді ідеї глави сім'ї, а коли з'ясовується, що він має намір помірятися силами в змаганнях з давнім дружком Джіммі Мерто, терпінню галасливого сімейства приходить кінець.


Рейтинг MPAA: PG - рекомендується присутність батьків
Вікова категорія: 12+

Тривалість: 01:33:54
Якість: 720p
Відео:
кодек:
розмір кадру: 1280 х 544
бітрейт: 5828 кбіт/с [crf=17]

Аудіо # 1:
мова: українська
переклад: професійний дубльований
кодек: 2.0
бітрейт: 192 кбіт/с
Інформація про дубляж

Професійний дубльований запис з 1+1
Ролі дублювали: Стів Мартін — Олег Лепенець, Том Веллінґ/Чарлі Бейкер — Дмитро Завадський, Гілері Даф — Юлія Перенчук, Пітер Келеґан/Майк Романов — Андрій Твердак, Бонні Гант — Ніна Касторф, Юджин Леві — Юрій Коваленко, Пайпер Перабо — Олена Яблучна, Джонатан Беннет — Павло Скороходько, Джеймі Кінґ — Лідія Муращенко, Кармен Електра — Людмила Ардельян та інші.
Аудіо # 2:
мова: англійська
переклад: оригінал
кодек: 5.1
бітрейт: 1510 кбіт/с

Субтитри:
мова: англійська
тип: програмні (м'які)
формат: *.srt
MediaInfo
Код:
General
Unique ID                   : 204080049121247279507461082563768330898 (0x9988634498ED4D4A9861645E7BF5AA92)
Complete name               : Cheaper by the Dozen 2 (2005) [Ukr,Eng sub.Eng] 720p [Hurtom & HDClub].mkv
Format                      : Matroska
Format version              : Version 4 / Version 2
File size                   : 5.04 GiB
Duration                    : 1h 33mn
Overall bit rate            : 7 683 Kbps
Movie name                  : Оптом дешевше 2 / Cheaper by the Dozen 2 (2005) [Ukr,Eng sub.Eng] 720p [Hurtom & HDClub]
Encoded date                : UTC 2015-06-19 23:05:01
Writing application         : mkvmerge v8.0.0 ('Til The Day That I Die') 64bit
Writing library             : libebml v1.3.1 + libmatroska v1.4.2
Attachements                : cover.jpg
DURATION                    : 01:32:40.513000000
NUMBER_OF_FRAMES            : 1826
NUMBER_OF_BYTES             : 59467
_STATISTICS_WRITING_APP     : mkvmerge v8.0.0 ('Til The Day That I Die') 64bit
_STATISTICS_WRITING_DATE_UT : 2015-06-19 23:05:01
_STATISTICS_TAGS            : BPS DURATION NUMBER_OF_FRAMES NUMBER_OF_BYTES

Video
ID                          : 1
Format                      : AVC
Format/Info                 : Advanced Video Codec
Format profile              : [email protected]
Format settings, CABAC      : Yes
Format settings, ReFrames   : 12 frames
Codec ID                    : V_MPEG4/ISO/AVC
Duration                    : 1h 33mn
Bit rate                    : 5 828 Kbps
Width                       : 1 280 pixels
Height                      : 544 pixels
Display aspect ratio        : 2.35:1
Frame rate mode             : Constant
Frame rate                  : 23.976 fps
Color space                 : YUV
Chroma subsampling          : 4:2:0
Bit depth                   : 8 bits
Scan type                   : Progressive
Bits/(Pixel*Frame)          : 0.349
Stream size                 : 3.82 GiB (76%)
Title                       : Оптом дешевше 2 / Cheaper by the Dozen 2 / Оптом дешевле 2 (2005) 720p [ThD]
Writing library             : core 142 r2453kMod ea0ca51
Encoding settings           : cabac=1 / ref=12 / deblock=1:-3:-3 / analyse=0x3:0x133 / me=umh / subme=9 / psy=1 / fade_compensate=0.00 / psy_rd=1.05:0.00 / mixed_ref=1 / me_range=24 / chroma_me=1 / trellis=2 / 8x8dct=1 / cqm=0 / deadzone=21,11 / fast_pskip=0 / chroma_qp_offset=-2 / threads=36 / lookahead_threads=4 / sliced_threads=0 / nr=0 / decimate=0 / interlaced=0 / bluray_compat=0 / constrained_intra=0 / fgo=0 / bframes=8 / b_pyramid=2 / b_adapt=2 / b_bias=0 / direct=3 / weightb=1 / open_gop=0 / weightp=2 / keyint=250 / keyint_min=23 / scenecut=40 / intra_refresh=0 / rc=crf / mbtree=0 / crf=17.0000 / qcomp=0.65 / qpmin=0 / qpmax=69 / qpstep=4 / ip_ratio=1.40 / pb_ratio=1.25 / aq=3:0.80
Language                    : English
Default                     : Yes
Forced                      : No
DURATION                    : 01:33:54.045000000
NUMBER_OF_FRAMES            : 135082
NUMBER_OF_BYTES             : 4209696923
_STATISTICS_WRITING_APP     : mkvmerge v8.0.0 ('Til The Day That I Die') 64bit
_STATISTICS_WRITING_DATE_UT : 2015-06-19 23:05:01
_STATISTICS_TAGS            : BPS DURATION NUMBER_OF_FRAMES NUMBER_OF_BYTES

Audio #1
ID                          : 2
Format                      : AC-3
Format/Info                 : Audio Coding 3
Mode extension              : CM (complete main)
Format settings, Endianness : Big
Codec ID                    : A_AC3
Duration                    : 1h 33mn
Bit rate mode               : Constant
Bit rate                    : 192 Kbps
Channel(s)                  : 2 channels
Channel positions           : Front: L R
Sampling rate               : 48.0 KHz
Compression mode            : Lossy
Stream size                 : 129 MiB (2%)
Title                       : Dub [1+1] 2.0 192 kbps [Hurtom-abodnya]
Language                    : Ukrainian
Default                     : Yes
Forced                      : No

Audio #2
ID                          : 3
Format                      :
Format/Info                 : Digital Theater Systems
Mode                        : 16
Format settings, Endianness : Big
Codec ID                    : A_DTS
Duration                    : 1h 33mn
Bit rate mode               : Constant
Bit rate                    : 1 510 Kbps
Channel(s)                  : 6 channels
Channel positions           : Front: L C R, Side: L R, LFE
Sampling rate               : 48.0 KHz
Bit depth                   : 24 bits
Compression mode            : Lossy
Stream size                 : 1 014 MiB (20%)
Title                       : Original 5.1 1510 kbps
Language                    : English
Default                     : No
Forced                      : No

Text
ID                          : 4
Format                      : UTF-8
Codec ID                    : S_TEXT/UTF8
Codec ID/Info               : UTF-8 Plain Text
Language                    : English
Default                     : No
Forced                      : No

Menu
00:00:00.000                : en:00:00:00.000
00:02:53.382                : en:00:02:53.382
00:06:18.336                : en:00:06:18.336
00:09:18.600                : en:00:09:18.600
00:11:50.209                : en:00:11:50.209
00:13:22.719                : en:00:13:22.719
00:18:37.366                : en:00:18:37.366
00:21:30.706                : en:00:21:30.706
00:23:46.717                : en:00:23:46.717
00:26:13.155                : en:00:26:13.155
00:31:16.208                : en:00:31:16.208
00:36:30.980                : en:00:36:30.980
00:41:37.745                : en:00:41:37.745
00:45:24.805                : en:00:45:24.805
00:50:37.159                : en:00:50:37.159
00:54:07.494                : en:00:54:07.494
00:58:38.849                : en:00:58:38.849
01:03:25.760                : en:01:03:25.760
01:07:59.033                : en:01:07:59.033
01:10:01.155                : en:01:10:01.155
01:12:30.096                : en:01:12:30.096
01:14:41.394                : en:01:14:41.394
01:17:39.280                : en:01:17:39.280
01:19:55.791                : en:01:19:55.791
01:23:48.857                : en:01:23:48.857
01:25:01.596                : en:01:25:01.596
01:27:22.863                : en:01:27:22.863
01:28:53.495                : en:01:28:53.495




Джерела та подяки: &
ріп відео, оригінальні звук та субтитри - ThD (HDbits), marchelush (HDClub); українська доріжка - abodnya - зведення, запис з ТБ; українізований постер - abodnya; фільмографії акторів та інформація про озвучення - Віктор (всі - Гуртом).




ЗАЛИШАЙТЕСЬ ЯКОМОГА ДОВШЕ НА РОЗДАЧІ!

СКАЧАВ САМ - ДАЙ СКАЧАТИ ІНШИМ


 Трекер:    Зареєстрований   

Завантажити / скачати фільм українською



відео для новачків



 Зареєстрований:   2015-06-20 01:48
 Розмір:   5.04 GB 
 Оцінка фільму:   4.2/10 (Голосів: 17)
   
Ваш часовий пояс: GMT + 2 Години

Нова тема   Відповісти